999
DXF file: 1634_undermount.dxf
999
Pro/ENGINEER 2015080 by Parametric Technology Corporation
  0
SECTION
  2
HEADER
  9
$ACADVER
  1
AC1027
  9
$DWGCODEPAGE
  3
ANSI_1252
  9
$EXTMAX
 10
34.0
 20
22.0
 30
0.0
  9
$EXTMIN
 10
0.0
 20
0.0
 30
0.0
  9
$LIMMIN
 10
0.0
 20
0.0
  9
$LIMMAX
 10
34.0
 20
22.0
  9
$VIEWCTR
 10
17.0
 20
11.0
  9
$VIEWSIZE
 40
22.0
  9
$CLAYER
  8
0
  9
$LTSCALE
 40
1.87
  9
$CELTYPE
  6
BYLAYER
  9
$DIMSCALE
 40
1.0
  9
$DIMASZ
 40
0.1875
  9
$DIMEXO
 40
0.0625
  9
$DIMDLI
 40
1.292
  9
$DIMEXE
 40
0.125
  9
$DIMCEN
 40
0.306
  9
$DIMLFAC
 40
1.0
  9
$DIMBLK
  1
_CLOSED
  9
$DIMALT
 70
0
  9
$DIMALTF
 40
25.4
  9
$DIMTXT
 40
0.15625
  9
$DIMTOL
 70
0
  9
$DIMLIM
 70
0
  9
$DIMTFAC
 40
1.0
  9
$DIMGAP
 40
0.09
  9
$DIMDSEP
 70
46
  9
$AUNITS
 70
0
  9
$PDMODE
 70
3
  9
$PDSIZE
 40
0.3125
  9
$HANDSEED
  5
387
  9
$TILEMODE
 70
1
  9
$MEASUREMENT
 70
0
  9
$INSUNITS
 70
1
  0
ENDSEC
  0
SECTION
  2
CLASSES
  0
CLASS
  1
ACDBDICTIONARYWDFLT
  2
AcDbDictionaryWithDefault
  3
AutoCAD 2000
 90
0
 91
1
280
0
281
0
  0
CLASS
  1
ACDBPLACEHOLDER
  2
AcDbPlaceHolder
  3
AutoCAD 2000
 90
0
 91
1
280
0
281
0
  0
CLASS
  1
LAYOUT
  2
AcDbLayout
  3
AutoCAD 2000
 90
0
 91
0
280
0
281
0
  0
ENDSEC
  0
SECTION
  2
TABLES
  0
TABLE
  2
VPORT
  5
8
100
AcDbSymbolTable
 70
2
  0
VPORT
  5
1F4
100
AcDbSymbolTableRecord
100
AcDbViewportTableRecord
  2
*ACTIVE
 70
0
 10
0.0
 20
0.0
 11
1.0
 21
1.0
 12
17.0
 22
11.0
 13
0.0
 23
0.0
 14
1.0
 24
1.0
 15
0.0
 25
0.0
 16
0.0
 26
0.0
 36
1.0
 17
0.0
 27
0.0
 37
0.0
 40
22.0
 41
1.5454545455
 42
50.0
 43
0.0
 44
0.0
 50
0.0
 51
0.0
 71
0
 72
100
 73
1
 74
1
 75
0
 76
0
 77
0
 78
0
  0
ENDTAB
  0
TABLE
  2
LTYPE
  5
5
100
AcDbSymbolTable
 70
6
  0
LTYPE
  5
14
100
AcDbSymbolTableRecord
100
AcDbLinetypeTableRecord
  2
BYBLOCK
 70
0
  3

 72
65
 73
0
 40
0.0
  0
LTYPE
  5
15
100
AcDbSymbolTableRecord
100
AcDbLinetypeTableRecord
  2
BYLAYER
 70
0
  3

 72
65
 73
0
 40
0.0
  0
LTYPE
  5
16
100
AcDbSymbolTableRecord
100
AcDbLinetypeTableRecord
  2
CONTINUOUS
 70
64
  3
Solid line
 72
65
 73
0
 40
0.0
  0
LTYPE
  5
1F5
100
AcDbSymbolTableRecord
100
AcDbLinetypeTableRecord
  2
CENTER
 70
64
  3
____ _ ____ _ ____ _ ____ _ ____ _ ____ _ ____
 72
65
 73
4
 40
0.6
 49
0.375
 74
0
 49
-0.075
 74
0
 49
0.075
 74
0
 49
-0.075
 74
0
  0
LTYPE
  5
1F6
100
AcDbSymbolTableRecord
100
AcDbLinetypeTableRecord
  2
HIDDEN
 70
64
  3
- - - - - - - - - - - - - - - - - - - -
 72
65
 73
2
 40
0.2
 49
0.1
 74
0
 49
-0.1
 74
0
  0
LTYPE
  5
1F7
100
AcDbSymbolTableRecord
100
AcDbLinetypeTableRecord
  2
PHANTOM
 70
64
  3
_____ _ _ _____ _ _ _____ _ _ _____
 72
65
 73
6
 40
0.8
 49
0.45
 74
0
 49
-0.05
 74
0
 49
0.1
 74
0
 49
-0.05
 74
0
 49
0.1
 74
0
 49
-0.05
 74
0
  0
LTYPE
  5
1F8
100
AcDbSymbolTableRecord
100
AcDbLinetypeTableRecord
  2
DOT
 70
64
  3
. . . . . . . . . . . . . . . . . . . .
 72
65
 73
2
 40
0.2
 49
0.1
 74
0
 49
-0.1
 74
0
  0
LTYPE
  5
1F9
100
AcDbSymbolTableRecord
100
AcDbLinetypeTableRecord
  2
DASHED
 70
64
  3
- - - - - - - - - - - - - - - - - - - -
 72
65
 73
2
 40
0.2
 49
0.1
 74
0
 49
-0.1
 74
0
  0
ENDTAB
  0
TABLE
  2
LAYER
  5
2
100
AcDbSymbolTable
 70
36
  0
LAYER
  5
10
100
AcDbSymbolTableRecord
100
AcDbLayerTableRecord
  2
0
 70
0
 62
7
  6
CONTINUOUS
370
-3
390
F
  0
LAYER
  5
1FA
100
AcDbSymbolTableRecord
100
AcDbLayerTableRecord
  2
DEFAULT_1
 70
0
 62
7
  6
CENTER
370
-3
390
F
  0
LAYER
  5
1FB
100
AcDbSymbolTableRecord
100
AcDbLayerTableRecord
  2
DEFAULT_2
 70
0
 62
8
  6
HIDDEN
370
-3
390
F
  0
LAYER
  5
1FC
100
AcDbSymbolTableRecord
100
AcDbLayerTableRecord
  2
DEFAULT_3
 70
0
 62
7
  6
PHANTOM
370
-3
390
F
  0
LAYER
  5
1FD
100
AcDbSymbolTableRecord
100
AcDbLayerTableRecord
  2
01_ALL_DTM_PLN
 70
0
 62
7
  6
CONTINUOUS
370
-3
390
F
  0
LAYER
  5
1FE
100
AcDbSymbolTableRecord
100
AcDbLayerTableRecord
  2
01__ASM_ALL_DTM_PLN
 70
0
 62
7
  6
CONTINUOUS
370
-3
390
F
  0
LAYER
  5
1FF
100
AcDbSymbolTableRecord
100
AcDbLayerTableRecord
  2
01__ASM_DEF_DTM_PLN
 70
0
 62
7
  6
CONTINUOUS
370
-3
390
F
  0
LAYER
  5
200
100
AcDbSymbolTableRecord
100
AcDbLayerTableRecord
  2
01___PRT_ALL_DTM_PLN
 70
0
 62
7
  6
CONTINUOUS
370
-3
390
F
  0
LAYER
  5
201
100
AcDbSymbolTableRecord
100
AcDbLayerTableRecord
  2
01___PRT_DEF_DTM_PLN
 70
0
 62
7
  6
CONTINUOUS
370
-3
390
F
  0
LAYER
  5
202
100
AcDbSymbolTableRecord
100
AcDbLayerTableRecord
  2
02_ALL_AXES
 70
0
 62
7
  6
CONTINUOUS
370
-3
390
F
  0
LAYER
  5
203
100
AcDbSymbolTableRecord
100
AcDbLayerTableRecord
  2
02__ASM_ALL_AXES
 70
0
 62
7
  6
CONTINUOUS
370
-3
390
F
  0
LAYER
  5
204
100
AcDbSymbolTableRecord
100
AcDbLayerTableRecord
  2
02___PRT_ALL_AXES
 70
0
 62
7
  6
CONTINUOUS
370
-3
390
F
  0
LAYER
  5
205
100
AcDbSymbolTableRecord
100
AcDbLayerTableRecord
  2
03_ALL_CURVES
 70
0
 62
7
  6
CONTINUOUS
370
-3
390
F
  0
LAYER
  5
206
100
AcDbSymbolTableRecord
100
AcDbLayerTableRecord
  2
03__ASM_ALL_CURVES
 70
0
 62
7
  6
CONTINUOUS
370
-3
390
F
  0
LAYER
  5
207
100
AcDbSymbolTableRecord
100
AcDbLayerTableRecord
  2
03___PRT_ALL_CURVES
 70
0
 62
7
  6
CONTINUOUS
370
-3
390
F
  0
LAYER
  5
208
100
AcDbSymbolTableRecord
100
AcDbLayerTableRecord
  2
04_ALL_DTM_PNT
 70
0
 62
7
  6
CONTINUOUS
370
-3
390
F
  0
LAYER
  5
209
100
AcDbSymbolTableRecord
100
AcDbLayerTableRecord
  2
04__ASM_ALL_DTM_PNT
 70
0
 62
7
  6
CONTINUOUS
370
-3
390
F
  0
LAYER
  5
20A
100
AcDbSymbolTableRecord
100
AcDbLayerTableRecord
  2
04___PRT_ALL_DTM_PNT
 70
0
 62
7
  6
CONTINUOUS
370
-3
390
F
  0
LAYER
  5
20B
100
AcDbSymbolTableRecord
100
AcDbLayerTableRecord
  2
05_ALL_DTM_CSYS
 70
0
 62
7
  6
CONTINUOUS
370
-3
390
F
  0
LAYER
  5
20C
100
AcDbSymbolTableRecord
100
AcDbLayerTableRecord
  2
05__ASM_ALL_DTM_CSYS
 70
0
 62
7
  6
CONTINUOUS
370
-3
390
F
  0
LAYER
  5
20D
100
AcDbSymbolTableRecord
100
AcDbLayerTableRecord
  2
05__ASM_DEF_DTM_CSYS
 70
0
 62
7
  6
CONTINUOUS
370
-3
390
F
  0
LAYER
  5
20E
100
AcDbSymbolTableRecord
100
AcDbLayerTableRecord
  2
05___PRT_ALL_DTM_CSYS
 70
0
 62
7
  6
CONTINUOUS
370
-3
390
F
  0
LAYER
  5
20F
100
AcDbSymbolTableRecord
100
AcDbLayerTableRecord
  2
05___PRT_DEF_DTM_CSYS
 70
0
 62
7
  6
CONTINUOUS
370
-3
390
F
  0
LAYER
  5
210
100
AcDbSymbolTableRecord
100
AcDbLayerTableRecord
  2
06_ALL_SURFS
 70
0
 62
7
  6
CONTINUOUS
370
-3
390
F
  0
LAYER
  5
211
100
AcDbSymbolTableRecord
100
AcDbLayerTableRecord
  2
06__ASM_ALL_SURFS
 70
0
 62
7
  6
CONTINUOUS
370
-3
390
F
  0
LAYER
  5
212
100
AcDbSymbolTableRecord
100
AcDbLayerTableRecord
  2
06___PRT_ALL_SURFS
 70
0
 62
7
  6
CONTINUOUS
370
-3
390
F
  0
LAYER
  5
213
100
AcDbSymbolTableRecord
100
AcDbLayerTableRecord
  2
07__ASM_ALL_SKELETONS
 70
0
 62
7
  6
CONTINUOUS
370
-3
390
F
  0
LAYER
  5
214
100
AcDbSymbolTableRecord
100
AcDbLayerTableRecord
  2
CLOSED_SHELL
 70
0
 62
7
  6
CONTINUOUS
370
-3
390
F
  0
LAYER
  5
215
100
AcDbSymbolTableRecord
100
AcDbLayerTableRecord
  2
WHITE
 70
0
 62
7
  6
CONTINUOUS
370
-3
390
F
  0
ENDTAB
  0
TABLE
  2
STYLE
  5
3
100
AcDbSymbolTable
 70
1
  0
STYLE
  5
11
100
AcDbSymbolTableRecord
100
AcDbTextStyleTableRecord
  2
STANDARD
 70
0
 40
0.0
 41
0.8
 50
0.0
 71
0
 42
0.2
  3
txt
  4

  0
STYLE
  5
216
100
AcDbSymbolTableRecord
100
AcDbTextStyleTableRecord
  2
TEXTSTYLE_1
 70
0
 40
0.0
 41
0.8
 50
0.0
 71
0
 42
0.2
  3
gdt
  4

  0
STYLE
  5
217
100
AcDbSymbolTableRecord
100
AcDbTextStyleTableRecord
  2
TEXTSTYLE_2
 70
0
 40
0.0
 41
1.0
 50
0.0
 71
0
 42
0.2
  3
triumb.ttf
  4

  0
STYLE
  5
218
100
AcDbSymbolTableRecord
100
AcDbTextStyleTableRecord
  2
TEXTSTYLE_3
 70
0
 40
0.0
 41
1.0
 50
0.0
 71
0
 42
0.2
  3
triumbi.ttf
  4

  0
ENDTAB
  0
TABLE
  2
VIEW
  5
6
100
AcDbSymbolTable
 70
0
  0
ENDTAB
  0
TABLE
  2
UCS
  5
7
100
AcDbSymbolTable
 70
0
  0
ENDTAB
  0
TABLE
  2
APPID
  5
9
100
AcDbSymbolTable
 70
1
  0
APPID
  5
219
100
AcDbSymbolTableRecord
100
AcDbRegAppTableRecord
  2
ACAD
 70
0
  0
ENDTAB
  0
TABLE
  2
BLOCK_RECORD
  5
1
100
AcDbSymbolTable
 70
0
  0
BLOCK_RECORD
  5
21A
100
AcDbSymbolTableRecord
100
AcDbBlockTableRecord
  2
*Model_Space
  0
BLOCK_RECORD
  5
21B
100
AcDbSymbolTableRecord
100
AcDbBlockTableRecord
  2
*Paper_Space
  0
BLOCK_RECORD
  5
21C
100
AcDbSymbolTableRecord
100
AcDbBlockTableRecord
  2
_CLOSED
  0
BLOCK_RECORD
  5
21D
100
AcDbSymbolTableRecord
100
AcDbBlockTableRecord
  2
*D0
  0
BLOCK_RECORD
  5
21E
100
AcDbSymbolTableRecord
100
AcDbBlockTableRecord
  2
*D1
  0
BLOCK_RECORD
  5
21F
100
AcDbSymbolTableRecord
100
AcDbBlockTableRecord
  2
*D2
  0
ENDTAB
  0
TABLE
  2
DIMSTYLE
  5
A
100
AcDbSymbolTable
 70
1
100
AcDbDimStyleTable
 71
0
  0
DIMSTYLE
105
220
100
AcDbSymbolTableRecord
100
AcDbDimStyleTableRecord
  2
STANDARD
 70
0
  3

  4

 40
1.0
 41
0.1875
 42
0.0625
 43
0.38
 44
0.125
 45
0.0
 46
0.0
 47
0.001
 48
0.001
140
0.15625
141
0.09
142
0.0
143
25.4
144
1.0
145
0.0
146
1.0
147
0.09
 71
0.0
 72
0.0
 73
1
 74
1
 75
0
 76
0
 77
0
 78
4
170
0
171
2
172
0
173
0
174
0
175
0
176
0
177
0
178
0
270
2
271
3
272
3
273
2
274
2
275
0
280
0
281
0
282
0
283
1
284
4
285
0
286
0
287
3
288
0
340
11
278
46
341
21C
342
21C
343
21C
344
21C
  0
DIMSTYLE
105
221
100
AcDbSymbolTableRecord
100
AcDbDimStyleTableRecord
  2
DIMSTYLE_1
 70
0
  3

  4

 40
1.0
 41
0.1875
 42
0.0625
 43
0.38
 44
0.125
 45
0.0
 46
0.0
 47
0.0
 48
0.0
140
0.187
141
0.09
142
0.0
143
25.4
144
1.0
145
0.0
146
1.0
147
0.0935
 71
0.0
 72
0.0
 73
1
 74
1
 75
0
 76
0
 77
0
 78
4
170
0
171
2
172
0
173
0
174
0
175
0
176
0
177
0
178
0
270
2
271
2
272
2
273
2
274
2
275
0
280
0
281
0
282
0
283
1
284
4
285
0
286
0
287
3
288
0
340
217
278
46
341
21C
342
21C
343
21C
344
21C
  0
DIMSTYLE
105
222
100
AcDbSymbolTableRecord
100
AcDbDimStyleTableRecord
  2
DIMSTYLE_2
 70
0
  3
<>
  4

 40
1.0
 41
0.1875
 42
0.0625
 43
0.38
 44
0.125
 45
0.0
 46
0.0
 47
0.0
 48
0.0
140
0.187
141
0.09
142
0.0
143
25.4
144
1.0
145
0.0
146
1.0
147
0.09
 71
0.0
 72
0.0
 73
1
 74
1
 75
0
 76
0
 77
0
 78
4
170
0
171
2
172
0
173
0
174
0
175
0
176
0
177
0
178
0
270
2
271
2
272
2
273
2
274
2
275
0
280
0
281
0
282
0
283
1
284
4
285
0
286
0
287
3
288
0
340
217
278
46
341
21C
342
21C
343
21C
344
21C
  0
ENDTAB
  0
ENDSEC
  0
SECTION
  2
BLOCKS
  0
BLOCK
  5
20
100
AcDbEntity
  8
0
100
AcDbBlockBegin
  2
*Model_Space
 70
0
 10
0.0
 20
0.0
 30
0.0
  3
*Model_Space
  1

  0
ENDBLK
  5
21
100
AcDbEntity
  8
0
100
AcDbBlockEnd
  0
BLOCK
  5
1C
100
AcDbEntity
  8
0
100
AcDbBlockBegin
  2
*Paper_Space
 70
0
 10
0.0
 20
0.0
 30
0.0
  3
*Paper_Space
  1

  0
ENDBLK
  5
1D
100
AcDbEntity
  8
0
100
AcDbBlockEnd
  0
BLOCK
  5
223
100
AcDbEntity
  8
0
100
AcDbBlockBegin
  2
_CLOSED
 70
64
 10
0.0
 20
0.0
  3
_CLOSED
  1

  0
LINE
  5
224
100
AcDbEntity
  8
0
  6
BYBLOCK
 62
0
100
AcDbLine
 10
0.0
 20
0.0
 11
-1.0
 21
0.1666666667
  0
LINE
  5
225
100
AcDbEntity
  8
0
  6
BYBLOCK
 62
0
100
AcDbLine
 10
-1.0
 20
0.1666666667
 11
-1.0
 21
-0.1666666667
  0
LINE
  5
226
100
AcDbEntity
  8
0
  6
BYBLOCK
 62
0
100
AcDbLine
 10
-1.0
 20
-0.1666666667
 11
0.0
 21
0.0
  0
LINE
  5
227
100
AcDbEntity
  8
0
  6
BYBLOCK
 62
0
100
AcDbLine
 10
-1.0
 20
0.0
 11
0.0
 21
0.0
  0
ENDBLK
  5
228
100
AcDbEntity
  8
0
  6
BYBLOCK
 62
0
100
AcDbBlockEnd
  0
BLOCK
  5
229
100
AcDbEntity
  8
0
100
AcDbBlockBegin
 62
2
  6
CONTINUOUS
  2
*D0
 70
65
 10
0.0
 20
0.0
  3
*D0
  1

  0
MTEXT
  5
22A
100
AcDbEntity
  8
0
100
AcDbMText
 62
2
  6
CONTINUOUS
  7
TEXTSTYLE_2
 71
2
 72
1
 10
16.0817783927
 20
19.3221018274
 30
0.0
 11
1.0
 21
0.0
 31
0.0
 44
0.9
  1
24.90"(634mm)
 40
0.187
 41
1.8914703704
  0
LINE
  5
22B
100
AcDbEntity
  8
0
100
AcDbLine
 62
2
  6
CONTINUOUS
 10
2.5244476422
 20
18.3062097781
 11
2.5244476422
 21
19.3536018274
  0
LINE
  5
22C
100
AcDbEntity
  8
0
100
AcDbLine
 62
2
  6
CONTINUOUS
 10
27.4244476422
 20
18.3062097781
 11
27.4244476422
 21
19.3536018274
  0
LINE
  5
22D
100
AcDbEntity
  8
0
100
AcDbLine
 62
2
  6
CONTINUOUS
 10
2.5244476422
 20
19.2286018274
 11
15.0425432075
 21
19.2286018274
  0
LINE
  5
22E
100
AcDbEntity
  8
0
100
AcDbLine
 62
2
  6
CONTINUOUS
 10
27.4244476422
 20
19.2286018274
 11
17.1210135779
 21
19.2286018274
  0
INSERT
  5
22F
100
AcDbEntity
  8
0
100
AcDbBlockReference
 62
2
  6
CONTINUOUS
  2
_CLOSED
 10
2.5244476422
 20
19.2286018274
 41
0.1875
 42
0.1875
 43
0.1875
 50
180.0
  0
INSERT
  5
230
100
AcDbEntity
  8
0
100
AcDbBlockReference
 62
2
  6
CONTINUOUS
  2
_CLOSED
 10
27.4244476422
 20
19.2286018274
 41
0.1875
 42
0.1875
 43
0.1875
  0
ENDBLK
  5
231
100
AcDbEntity
  8
0
  6
BYBLOCK
 62
0
100
AcDbBlockEnd
  0
BLOCK
  5
232
100
AcDbEntity
  8
0
100
AcDbBlockBegin
 62
2
  6
CONTINUOUS
  2
*D1
 70
65
 10
0.0
 20
0.0
  3
*D1
  1

  0
MTEXT
  5
233
100
AcDbEntity
  8
0
100
AcDbMText
 62
2
  6
CONTINUOUS
  7
TEXTSTYLE_2
 71
2
 72
1
 10
28.7710960553
 20
8.9364023429
 30
0.0
 11
1.0
 21
0.0
 31
0.0
 44
0.9
  1
15.67"(398mm)
 40
0.187
 41
1.8914703704
  0
LINE
  5
234
100
AcDbEntity
  8
0
100
AcDbLine
 62
2
  6
CONTINUOUS
 10
27.1119476422
 20
18.6187097781
 11
28.8960960553
 21
18.6187097781
  0
LINE
  5
235
100
AcDbEntity
  8
0
100
AcDbLine
 62
2
  6
CONTINUOUS
 10
27.1119476422
 20
2.9487097781
 11
28.8960960553
 21
2.9487097781
  0
LINE
  5
236
100
AcDbEntity
  8
0
100
AcDbLine
 62
2
  6
CONTINUOUS
 10
28.7710960553
 20
18.6187097781
 11
28.7710960553
 21
9.0299023429
  0
LINE
  5
237
100
AcDbEntity
  8
0
100
AcDbLine
 62
2
  6
CONTINUOUS
 10
28.7710960553
 20
2.9487097781
 11
28.7710960553
 21
8.6559023429
  0
INSERT
  5
238
100
AcDbEntity
  8
0
100
AcDbBlockReference
 62
2
  6
CONTINUOUS
  2
_CLOSED
 10
28.7710960553
 20
18.6187097781
 41
0.1875
 42
0.1875
 43
0.1875
 50
90.0
  0
INSERT
  5
239
100
AcDbEntity
  8
0
100
AcDbBlockReference
 62
2
  6
CONTINUOUS
  2
_CLOSED
 10
28.7710960553
 20
2.9487097781
 41
0.1875
 42
0.1875
 43
0.1875
 50
270.0
  0
ENDBLK
  5
23A
100
AcDbEntity
  8
0
  6
BYBLOCK
 62
0
100
AcDbBlockEnd
  0
BLOCK
  5
23B
100
AcDbEntity
  8
0
100
AcDbBlockBegin
 62
2
  6
CONTINUOUS
  2
*D2
 70
65
 10
0.0
 20
0.0
  3
*D2
  1

  0
MTEXT
  5
23C
100
AcDbEntity
  8
0
100
AcDbMText
 62
2
  6
CONTINUOUS
  7
TEXTSTYLE_2
 71
3
 72
1
 10
24.1464780783
 20
16.3310101838
 30
0.0
 11
1.0
 21
0.0
 31
0.0
 44
0.9
  1
4x R.38"(10mm)
 40
0.187
 41
2.0071333333
  0
LINE
  5
23D
100
AcDbEntity
  8
0
100
AcDbLine
 62
2
  6
CONTINUOUS
 10
26.7503414362
 20
18.0175229581
 11
24.3964780783
 21
16.2375101838
  0
LINE
  5
23E
100
AcDbEntity
  8
0
100
AcDbLine
 62
2
  6
CONTINUOUS
 10
24.3964780783
 20
16.2375101838
 11
24.2399780783
 21
16.2375101838
  0
INSERT
  5
23F
100
AcDbEntity
  8
0
100
AcDbBlockReference
 62
2
  6
CONTINUOUS
  2
_CLOSED
 10
26.7503414362
 20
18.0175229581
 41
0.1875
 42
0.1875
 43
0.1875
 50
37.096901425
  0
ENDBLK
  5
240
100
AcDbEntity
  8
0
  6
BYBLOCK
 62
0
100
AcDbBlockEnd
  0
ENDSEC
  0
SECTION
  2
ENTITIES
  0
HATCH
  5
241
100
AcDbEntity
  8
0
100
AcDbHatch
 62
2
  6
CONTINUOUS
 10
0.0
 20
0.0
 30
0.0
210
0.0
220
0.0
230
1.0
  2
default__1
 70
1
 71
0
 91
2
 92
1
 93
5
 72
1
 10
5.1375197642
 20
6.9654135901
 11
6.3375197642
 21
6.9654135901
 72
1
 10
5.1375197642
 20
6.9654135901
 11
5.1375197642
 21
7.1154135901
 72
1
 10
5.1375197642
 20
7.1154135901
 11
6.3125197642
 21
7.1154135901
 72
2
 10
6.3125197642
 20
7.0904135901
 40
0.025
 50
0.0
 51
90.0
 73
1
 72
1
 10
6.3375197642
 20
6.9654135901
 11
6.3375197642
 21
7.0904135901
 97
0
 92
1
 93
5
 72
1
 10
9.2875197642
 20
6.9654135901
 11
10.4875197642
 21
6.9654135901
 72
1
 10
9.2875197642
 20
6.9654135901
 11
9.2875197642
 21
7.0904135901
 72
2
 10
9.3125197642
 20
7.0904135901
 40
0.025
 50
90.0
 51
180.0
 73
1
 72
1
 10
9.3125197642
 20
7.1154135901
 11
10.4875197642
 21
7.1154135901
 72
1
 10
10.4875197642
 20
6.9654135901
 11
10.4875197642
 21
7.1154135901
 97
0
 75
0
 76
1
 98
1
 10
0.0
 20
0.0
  0
HATCH
  5
242
100
AcDbEntity
  8
0
100
AcDbHatch
 62
2
  6
CONTINUOUS
 10
0.0
 20
0.0
 30
0.0
210
0.0
220
0.0
230
1.0
  2
default__2
 70
1
 71
0
 91
2
 92
1
 93
20
 72
1
 10
6.320470557
 20
5.1581379995
 11
6.3767942287
 21
5.1581379995
 72
2
 10
6.320470557
 20
5.1817600468
 40
0.0236220472
 50
183.0
 51
270.0
 73
1
 72
1
 10
6.2125039359
 20
6.7905318242
 11
6.296880883
 21
5.1805237643
 72
2
 10
6.1653245878
 20
6.7880592594
 40
0.0472440945
 50
3.0
 51
90.0
 73
1
 72
1
 10
6.1653245878
 20
6.8353033539
 11
6.0419135468
 21
6.8353033539
 72
2
 10
6.0419135468
 20
6.8589254011
 40
0.0236220472
 50
183.0
 51
270.0
 73
1
 72
1
 10
6.0183238728
 20
6.8576891187
 11
6.0146099356
 21
6.9285552604
 72
2
 10
6.0381996097
 20
6.9297915428
 40
0.0236220472
 50
90.0
 51
183.0
 73
1
 72
1
 10
6.0381996097
 20
6.9534135901
 11
6.2646979278
 21
6.9534135901
 72
2
 10
6.2646979278
 20
6.9030198893
 40
0.0503937008
 50
3.0
 51
90.0
 73
1
 72
1
 10
6.3150225658
 20
6.9056572918
 11
6.3867350333
 21
5.5373018972
 72
2
 10
6.4810937295
 20
5.5422470269
 40
0.094488189
 50
183.0
 51
266.9999999984
 73
1
 72
1
 10
7.3007087406
 20
5.404674964
 11
6.4761485997
 21
5.4478883298
 72
1
 10
7.3007087406
 20
5.404674964
 11
7.363669302
 21
5.3935733183
 72
2
 10
7.3595673766
 20
5.370310143
 40
0.0236220472
 50
5.0
 51
80.0
 73
1
 72
1
 10
7.3830995348
 20
5.3723689401
 11
7.385201339
 21
5.3483452084
 72
2
 10
7.3616691807
 20
5.3462864113
 40
0.0236220472
 50
267.0
 51
5.0
 73
1
 72
1
 10
7.3604328983
 20
5.3226967373
 11
6.4824476986
 21
5.3687099918
 72
2
 10
6.4775025693
 20
5.2743513034
 40
0.0944881889
 50
87.0
 51
177.0
 73
1
 72
1
 10
6.3767942287
 20
5.1581379995
 11
6.3831438731
 21
5.2792964331
 97
0
 92
1
 93
20
 72
1
 10
9.2482452997
 20
5.1581379995
 11
9.3045689714
 21
5.1581379995
 72
1
 10
9.2482452997
 20
5.1581379995
 11
9.2418956553
 21
5.2792964331
 72
2
 10
9.1475369591
 20
5.2743513034
 40
0.0944881889
 50
3.0
 51
93.0
 73
1
 72
1
 10
8.2646066301
 20
5.3226967373
 11
9.1425918298
 21
5.3687099918
 72
2
 10
8.2633703477
 20
5.3462864113
 40
0.0236220472
 50
175.0
 51
273.0
 73
1
 72
1
 10
8.2419399937
 20
5.3723689401
 11
8.2398381895
 21
5.3483452084
 72
2
 10
8.2654721519
 20
5.370310143
 40
0.0236220472
 50
100.0
 51
175.0
 73
1
 72
1
 10
8.3243307878
 20
5.404674964
 11
8.2613702264
 21
5.3935733183
 72
1
 10
8.3243307878
 20
5.404674964
 11
9.1488909287
 21
5.4478883298
 72
2
 10
9.143945799
 20
5.5422470269
 40
0.094488189
 50
273.0000000016
 51
357.0
 73
1
 72
1
 10
9.3100169627
 20
6.9056572918
 11
9.2383044952
 21
5.5373018972
 72
2
 10
9.3603416006
 20
6.9030198893
 40
0.0503937008
 50
90.0
 51
177.0
 73
1
 72
1
 10
9.3603416006
 20
6.9534135901
 11
9.5868399187
 21
6.9534135901
 72
2
 10
9.5868399187
 20
6.9297915428
 40
0.0236220472
 50
357.0
 51
90.0
 73
1
 72
1
 10
9.6067156557
 20
6.8576891187
 11
9.6104295928
 21
6.9285552604
 72
2
 10
9.5831259816
 20
6.8589254011
 40
0.0236220472
 50
270.0
 51
357.0
 73
1
 72
1
 10
9.5831259816
 20
6.8353033539
 11
9.4597149406
 21
6.8353033539
 72
2
 10
9.4597149406
 20
6.7880592594
 40
0.0472440945
 50
90.0
 51
177.0
 73
1
 72
1
 10
9.4125355925
 20
6.7905318242
 11
9.3281586455
 21
5.1805237643
 72
2
 10
9.3045689714
 20
5.1817600468
 40
0.0236220472
 50
270.0
 51
357.0
 73
1
 97
0
 75
0
 76
1
 98
1
 10
0.0
 20
0.0
  0
HATCH
  5
243
100
AcDbEntity
  8
0
100
AcDbHatch
 62
2
  6
CONTINUOUS
 10
0.0
 20
0.0
 30
0.0
210
0.0
220
0.0
230
1.0
  2
B
 70
1
 71
0
 91
2
 92
1
 93
6
 72
1
 10
14.9044731304
 20
6.9335807926
 11
16.0794731304
 21
6.9335807926
 72
1
 10
14.9044731304
 20
6.9335807926
 11
14.9044731304
 21
7.1335807926
 72
1
 10
14.9044731304
 20
7.1335807926
 11
16.0794731304
 21
7.1335807926
 72
2
 10
16.0794731304
 20
7.1085807926
 40
0.025
 50
0.0
 51
90.0
 73
1
 72
1
 10
16.1044731304
 20
6.9585807926
 11
16.1044731304
 21
7.1085807926
 72
2
 10
16.0794731304
 20
6.9585807926
 40
0.025
 50
270.0
 51
360.0
 73
1
 97
0
 92
1
 93
6
 72
1
 10
19.4046731304
 20
6.9335807926
 11
20.5796731304
 21
6.9335807926
 72
2
 10
19.4046731304
 20
6.9585807926
 40
0.025
 50
180.0
 51
270.0
 73
1
 72
1
 10
19.3796731304
 20
6.9585807926
 11
19.3796731304
 21
7.1085807926
 72
2
 10
19.4046731304
 20
7.1085807926
 40
0.025
 50
90.0
 51
180.0
 73
1
 72
1
 10
19.4046731304
 20
7.1335807926
 11
20.5796731304
 21
7.1335807926
 72
1
 10
20.5796731304
 20
6.9335807926
 11
20.5796731304
 21
7.1335807926
 97
0
 75
0
 76
1
 98
1
 10
0.0
 20
0.0
  0
HATCH
  5
244
100
AcDbEntity
  8
0
100
AcDbHatch
 62
2
  6
CONTINUOUS
 10
0.0
 20
0.0
 30
0.0
210
0.0
220
0.0
230
1.0
  2
default__3
 70
1
 71
0
 91
2
 92
1
 93
20
 72
1
 10
16.2500239232
 20
5.126305202
 11
16.3063475948
 21
5.126305202
 72
2
 10
16.2500239232
 20
5.1499272493
 40
0.0236220472
 50
183.0
 51
270.0
 73
1
 72
1
 10
16.1420573021
 20
6.7586990267
 11
16.2264342491
 21
5.1486909668
 72
2
 10
16.094877954
 20
6.7562264619
 40
0.0472440945
 50
3.0
 51
90.0
 73
1
 72
1
 10
16.094877954
 20
6.8034705564
 11
15.971466913
 21
6.8034705564
 72
2
 10
15.971466913
 20
6.8270926036
 40
0.0236220472
 50
183.0
 51
270.0
 73
1
 72
1
 10
15.9478772389
 20
6.8258563212
 11
15.9441633018
 21
6.8967224629
 72
2
 10
15.9677529759
 20
6.8979587453
 40
0.0236220472
 50
90.0
 51
183.0
 73
1
 72
1
 10
15.9677529759
 20
6.9215807926
 11
16.1942512939
 21
6.9215807926
 72
2
 10
16.1942512939
 20
6.8711870918
 40
0.0503937008
 50
3.0
 51
90.0
 73
1
 72
1
 10
16.2445759319
 20
6.8738244943
 11
16.3162883994
 21
5.5054690997
 72
2
 10
16.4106470956
 20
5.5104142294
 40
0.094488189
 50
183.0
 51
266.9999999984
 73
1
 72
1
 10
17.2302621068
 20
5.3728421665
 11
16.4057019658
 21
5.4160555323
 72
1
 10
17.2302621068
 20
5.3728421665
 11
17.2932226682
 21
5.3617405208
 72
2
 10
17.2891207427
 20
5.3384773455
 40
0.0236220472
 50
5.0
 51
80.0
 73
1
 72
1
 10
17.3126529009
 20
5.3405361426
 11
17.3147547051
 21
5.3165124109
 72
2
 10
17.2912225469
 20
5.3144536138
 40
0.0236220472
 50
267.0
 51
5.0
 73
1
 72
1
 10
17.2899862645
 20
5.2908639398
 11
16.4120010648
 21
5.3368771943
 72
2
 10
16.4070559355
 20
5.2425185059
 40
0.0944881889
 50
87.0
 51
177.0
 73
1
 72
1
 10
16.3063475948
 20
5.126305202
 11
16.3126972393
 21
5.2474636356
 97
0
 92
1
 93
20
 72
1
 10
19.1777986659
 20
5.126305202
 11
19.2341223376
 21
5.126305202
 72
1
 10
19.1777986659
 20
5.126305202
 11
19.1714490215
 21
5.2474636356
 72
2
 10
19.0770903253
 20
5.2425185059
 40
0.0944881889
 50
3.0
 51
93.0
 73
1
 72
1
 10
18.1941599963
 20
5.2908639398
 11
19.0721451959
 21
5.3368771943
 72
2
 10
18.1929237139
 20
5.3144536138
 40
0.0236220472
 50
175.0
 51
273.0
 73
1
 72
1
 10
18.1714933598
 20
5.3405361426
 11
18.1693915556
 21
5.3165124109
 72
2
 10
18.195025518
 20
5.3384773455
 40
0.0236220472
 50
100.0
 51
175.0
 73
1
 72
1
 10
18.253884154
 20
5.3728421665
 11
18.1909235926
 21
5.3617405208
 72
1
 10
18.253884154
 20
5.3728421665
 11
19.0784442949
 21
5.4160555323
 72
2
 10
19.0734991651
 20
5.5104142294
 40
0.094488189
 50
273.0000000016
 51
357.0
 73
1
 72
1
 10
19.2395703288
 20
6.8738244943
 11
19.1678578613
 21
5.5054690997
 72
2
 10
19.2898949668
 20
6.8711870918
 40
0.0503937008
 50
90.0
 51
177.0
 73
1
 72
1
 10
19.2898949668
 20
6.9215807926
 11
19.5163932849
 21
6.9215807926
 72
2
 10
19.5163932849
 20
6.8979587453
 40
0.0236220472
 50
357.0
 51
90.0
 73
1
 72
1
 10
19.5362690218
 20
6.8258563212
 11
19.5399829589
 21
6.8967224629
 72
2
 10
19.5126793478
 20
6.8270926036
 40
0.0236220472
 50
270.0
 51
357.0
 73
1
 72
1
 10
19.5126793478
 20
6.8034705564
 11
19.3892683068
 21
6.8034705564
 72
2
 10
19.3892683068
 20
6.7562264619
 40
0.0472440945
 50
90.0
 51
177.0
 73
1
 72
1
 10
19.3420889587
 20
6.7586990267
 11
19.2577120116
 21
5.1486909668
 72
2
 10
19.2341223376
 20
5.1499272493
 40
0.0236220472
 50
270.0
 51
357.0
 73
1
 97
0
 75
0
 76
1
 98
1
 10
0.0
 20
0.0
  0
DIMENSION
  5
245
100
AcDbEntity
  8
0
100
AcDbDimension
 62
2
  6
CONTINUOUS
  2
*D0
 10
27.4244476422
 20
19.2286018274
 11
16.0817783927
 21
19.2286018274
 70
160
 71
2
 42
24.9
  1
<>"(634mm)
  3
DIMSTYLE_1
100
AcDbAlignedDimension
 13
2.5244476422
 23
18.2437097781
 14
27.4244476422
 24
18.2437097781
100
AcDbRotatedDimension
  0
DIMENSION
  5
246
100
AcDbEntity
  8
0
100
AcDbDimension
 62
2
  6
CONTINUOUS
  2
*D1
 10
28.7710960553
 20
2.9487097781
 11
28.7710960553
 21
8.8429023429
 70
160
 71
2
 42
15.67
  1
<>"(398mm)
  3
DIMSTYLE_1
100
AcDbAlignedDimension
 13
27.0494476422
 23
18.6187097781
 14
27.0494476422
 24
2.9487097781
 50
270.0
100
AcDbRotatedDimension
  0
DIMENSION
  5
247
100
AcDbEntity
  8
0
100
AcDbDimension
 62
2
  6
CONTINUOUS
  2
*D2
 10
27.0494476422
 20
18.2437097781
 11
23.1429114117
 21
16.2375101838
 70
164
 71
3
 42
0.375
  1
4x R<>"(10mm)
  3
DIMSTYLE_2
100
AcDbRadialDimension
 15
26.7503414362
 25
18.0175229581
  0
MTEXT
  5
248
100
AcDbEntity
  8
0
100
AcDbMText
 62
2
  6
CONTINUOUS
  7
TEXTSTYLE_2
 71
1
 72
1
 10
3.9284629906
 20
14.8665375101
 30
0.0
 11
1.0
 21
0.0
 31
0.0
 44
0.9
  1
www.bocchiusa.com\P \PModel No. 1634-xxx-0126\P \P\Ftriumbi.ttf;\H0.75;UNDERMOUNT\P\Ftriumb.ttf;\H0.437; \PCustomer Service: +1 877-565-2221
 40
0.437
 41
10.615862963
  0
MTEXT
  5
249
100
AcDbEntity
  8
0
100
AcDbMText
 62
2
  6
CONTINUOUS
  7
TEXTSTYLE_2
 71
1
 72
1
 10
4.0795249656
 20
9.273387663
 30
0.0
 11
1.0
 21
0.0
 31
0.0
 44
0.9
  1
Note:  Cutout template is provided as a guide only and\Pmust be checked against actual sink to verify correct fit.
 40
0.25
 41
9.4712962963
  0
MTEXT
  5
24A
100
AcDbEntity
  8
0
100
AcDbMText
 62
2
  6
CONTINUOUS
  7
TEXTSTYLE_2
 71
1
 72
1
 10
6.7875956824
 20
4.43783257
 30
0.0
 11
1.0
 21
0.0
 31
0.0
 44
0.9
  1
FLUSH MOUNT
 40
0.187
 41
1.9067074074
  0
MTEXT
  5
24B
100
AcDbEntity
  8
0
100
AcDbMText
 62
2
  6
CONTINUOUS
  7
TEXTSTYLE_2
 71
1
 72
1
 10
16.3980209405
 20
4.4362737071
 30
0.0
 11
1.0
 21
0.0
 31
0.0
 44
0.9
  1
MAX REVEAL MOUNT
 40
0.187
 41
2.745437037
  0
MTEXT
  5
24C
100
AcDbEntity
  8
0
100
AcDbMText
 62
2
  6
CONTINUOUS
  7
TEXTSTYLE_2
 71
1
 72
1
 10
29.7017441337
 20
21.5328104674
 30
0.0
 11
1.0
 21
0.0
 31
0.0
 44
0.9
  1
1634_UNDERMOUNT
 40
0.25
 41
3.4638888889
  0
MTEXT
  5
24D
100
AcDbEntity
  8
0
100
AcDbMText
 62
2
  6
CONTINUOUS
  7
TEXTSTYLE_2
 71
1
 72
1
 10
31.3104866392
 20
0.6730940686
 30
0.0
 11
1.0
 21
0.0
 31
0.0
 44
0.9
  1
05/24/2023
 40
0.15625
 41
1.1354166667
  0
LEADER
  5
24E
100
AcDbEntity
  8
0
100
AcDbLeader
 62
2
  6
CONTINUOUS
  3
STANDARD
 71
1
 72
0
 73
0
 75
0
 40
0.187
 41
1.9067074074
 76
3
 10
27.4244476422
 20
13.2068536996
 30
0.0
 10
23.5195448542
 20
12.2487206753
 30
0.0
 10
23.2695448542
 20
12.2487206753
 30
0.0
340
24F
1001
ACAD
1000
DSTYLE
1002
{
1070
77
1070
0
1002
}
  0
MTEXT
  5
24F
102
{ACAD_REACTORS
330
24E
102
}
100
AcDbEntity
  8
0
100
AcDbMText
 62
2
  6
CONTINUOUS
  7
TEXTSTYLE_2
 71
3
 72
1
 10
23.2695448542
 20
12.3422206753
 30
0.0
 11
1.0
 21
0.0
 31
0.0
 44
0.9
  1
FLUSH MOUNT\PCUT LINE
 40
0.187
 41
1.9067074074
  0
MTEXT
  5
250
100
AcDbEntity
  8
0
100
AcDbMText
 62
2
  6
CONTINUOUS
  7
STANDARD
 71
3
 72
1
 10
7.8125197642
 20
4.8137977483
 30
0.0
 11
1.0
 21
0.0
 31
0.0
 44
0.9
  1
SECTION  B-B
 40
0.15625
 41
1.5
  0
LINE
  5
251
100
AcDbEntity
  8
0
100
AcDbLine
 62
7
  6
CONTINUOUS
 10
0.0
 20
0.0
 11
0.0
 21
22.0
  0
LINE
  5
252
100
AcDbEntity
  8
0
100
AcDbLine
 62
7
  6
CONTINUOUS
 10
0.0
 20
0.0
 11
34.0
 21
0.0
  0
LINE
  5
253
100
AcDbEntity
  8
0
100
AcDbLine
 62
7
  6
CONTINUOUS
 10
0.0
 20
22.0
 11
34.0
 21
22.0
  0
LINE
  5
254
100
AcDbEntity
  8
0
100
AcDbLine
 62
7
  6
CONTINUOUS
 10
34.0
 20
0.0
 11
34.0
 21
22.0
  0
LINE
  5
255
100
AcDbEntity
  8
0
100
AcDbLine
 62
7
  6
CONTINUOUS
 10
4.0096136733
 20
17.4981616996
 11
4.0096136733
 21
15.8448087147
  0
LINE
  5
256
100
AcDbEntity
  8
0
100
AcDbLine
 62
7
  6
CONTINUOUS
 10
4.4592869349
 20
16.8463537065
 11
4.4547625236
 21
17.1461358809
  0
LINE
  5
257
100
AcDbEntity
  8
0
100
AcDbLine
 62
7
  6
CONTINUOUS
 10
4.4547625236
 20
16.1968079191
 11
4.4547625236
 21
16.5306562497
  0
LINE
  5
258
100
AcDbEntity
  8
0
100
AcDbLine
 62
7
  6
CONTINUOUS
 10
4.949839584
 20
17.0257599244
 11
4.949839584
 21
16.9553654063
  0
LINE
  5
259
100
AcDbEntity
  8
0
100
AcDbLine
 62
7
  6
CONTINUOUS
 10
5.0168541006
 20
16.405782496
 11
5.0168541006
 21
16.3138038743
  0
LINE
  5
25A
100
AcDbEntity
  8
0
100
AcDbLine
 62
7
  6
CONTINUOUS
 10
5.1905914972
 20
16.6760229256
 11
5.1905914972
 21
16.7600439061
  0
LINE
  5
25B
100
AcDbEntity
  8
0
100
AcDbLine
 62
7
  6
CONTINUOUS
 10
5.39725064
 20
17.0371241812
 11
5.39725064
 21
17.1393226497
  0
LINE
  5
25C
100
AcDbEntity
  8
0
100
AcDbLine
 62
7
  6
CONTINUOUS
 10
5.4449432586
 20
16.1650305828
 11
5.4449432586
 21
16.4466618834
  0
LINE
  5
25D
100
AcDbEntity
  8
0
100
AcDbLine
 62
7
  6
CONTINUOUS
 10
5.3677355093
 20
16.9167482246
 11
5.39725064
 21
17.0371241812
  0
LINE
  5
25E
100
AcDbEntity
  8
0
100
AcDbLine
 62
7
  6
CONTINUOUS
 10
4.949839584
 20
16.9553654063
 11
4.9135112221
 21
16.9008595564
  0
LINE
  5
25F
100
AcDbEntity
  8
0
100
AcDbLine
 62
7
  6
CONTINUOUS
 10
4.9702792777
 20
16.4943545021
 11
5.0168541006
 21
16.405782496
  0
LINE
  5
260
100
AcDbEntity
  8
0
100
AcDbLine
 62
7
  6
CONTINUOUS
 10
5.6516024014
 20
17.0053202307
 11
5.6220872708
 21
16.7146401073
  0
LINE
  5
261
100
AcDbEntity
  8
0
100
AcDbLine
 62
7
  6
CONTINUOUS
 10
5.7492764586
 20
17.2120059876
 11
5.6516024014
 21
17.0053202307
  0
LINE
  5
262
100
AcDbEntity
  8
0
100
AcDbLine
 62
7
  6
CONTINUOUS
 10
5.4449432586
 20
16.4466618834
 11
5.3563712526
 21
16.5942641507
  0
LINE
  5
263
100
AcDbEntity
  8
0
100
AcDbLine
 62
7
  6
CONTINUOUS
 10
4.9160471255
 20
17.087712765
 11
4.949839584
 21
17.0257599244
  0
LINE
  5
264
100
AcDbEntity
  8
0
100
AcDbLine
 62
7
  6
CONTINUOUS
 10
5.6516024014
 20
16.4488974749
 11
5.75380087
 21
16.2286384838
  0
LINE
  5
265
100
AcDbEntity
  8
0
100
AcDbLine
 62
7
  6
CONTINUOUS
 10
5.39725064
 20
17.1393226497
 11
5.3427447901
 21
17.2801383
  0
LINE
  5
266
100
AcDbEntity
  8
0
100
AcDbLine
 62
7
  6
CONTINUOUS
 10
5.6220872708
 20
16.7146401073
 11
5.6516024014
 21
16.4488974749
  0
LINE
  5
267
100
AcDbEntity
  8
0
100
AcDbLine
 62
7
  6
CONTINUOUS
 10
6.0944624318
 20
16.5238430185
 11
6.0944624318
 21
16.9076727876
  0
LINE
  5
268
100
AcDbEntity
  8
0
100
AcDbLine
 62
7
  6
CONTINUOUS
 10
5.2961965814
 20
16.8270584227
 11
5.3677355093
 21
16.9167482246
  0
LINE
  5
269
100
AcDbEntity
  8
0
100
AcDbLine
 62
7
  6
CONTINUOUS
 10
6.0944624318
 20
16.9076727876
 11
6.1421550505
 21
16.9871693568
  0
LINE
  5
26A
100
AcDbEntity
  8
0
100
AcDbLine
 62
7
  6
CONTINUOUS
 10
5.3313805333
 20
16.0128506757
 11
5.4449432586
 21
16.1650305828
  0
LINE
  5
26B
100
AcDbEntity
  8
0
100
AcDbLine
 62
7
  6
CONTINUOUS
 10
5.915056214
 20
17.3936744112
 11
5.7492764586
 21
17.2120059876
  0
LINE
  5
26C
100
AcDbEntity
  8
0
100
AcDbLine
 62
7
  6
CONTINUOUS
 10
5.0168541006
 20
16.3138038743
 11
4.9543906096
 21
16.251313769
  0
LINE
  5
26D
100
AcDbEntity
  8
0
100
AcDbLine
 62
7
  6
CONTINUOUS
 10
6.0286189393
 20
17.4913484684
 11
5.915056214
 21
17.3936744112
  0
LINE
  5
26E
100
AcDbEntity
  8
0
100
AcDbLine
 62
7
  6
CONTINUOUS
 10
4.9135112221
 20
16.9008595564
 11
4.8294902416
 21
16.8463537065
  0
LINE
  5
26F
100
AcDbEntity
  8
0
100
AcDbLine
 62
7
  6
CONTINUOUS
 10
5.861694774
 20
16.1207445798
 11
6.0149924769
 21
15.9833621593
  0
LINE
  5
270
100
AcDbEntity
  8
0
100
AcDbLine
 62
7
  6
CONTINUOUS
 10
5.75380087
 20
16.2286384838
 11
5.861694774
 21
16.1207445798
  0
LINE
  5
271
100
AcDbEntity
  8
0
100
AcDbLine
 62
7
  6
CONTINUOUS
 10
5.3427447901
 20
17.2801383
 11
5.226919859
 21
17.423216156
  0
LINE
  5
272
100
AcDbEntity
  8
0
100
AcDbLine
 62
7
  6
CONTINUOUS
 10
6.1512571016
 20
16.4103069073
 11
6.0944624318
 21
16.5238430185
  0
LINE
  5
273
100
AcDbEntity
  8
0
100
AcDbLine
 62
7
  6
CONTINUOUS
 10
6.1421550505
 20
16.9871693568
 11
6.2125761827
 21
17.073452543
  0
LINE
  5
274
100
AcDbEntity
  8
0
100
AcDbLine
 62
7
  6
CONTINUOUS
 10
5.1905914972
 20
16.7600439061
 11
5.2961965814
 21
16.8270584227
  0
LINE
  5
275
100
AcDbEntity
  8
0
100
AcDbLine
 62
7
  6
CONTINUOUS
 10
6.2466423389
 20
16.31492167
 11
6.1512571016
 21
16.4103069073
  0
LINE
  5
276
100
AcDbEntity
  8
0
100
AcDbLine
 62
7
  6
CONTINUOUS
 10
6.9075257689
 20
16.7872968311
 11
6.9075257689
 21
16.6464811808
  0
LINE
  5
277
100
AcDbEntity
  8
0
100
AcDbLine
 62
7
  6
CONTINUOUS
 10
6.9075257689
 20
16.6464811808
 11
6.8870860752
 21
16.521607427
  0
LINE
  5
278
100
AcDbEntity
  8
0
100
AcDbLine
 62
7
  6
CONTINUOUS
 10
5.1996669341
 20
15.8993145646
 11
5.3313805333
 21
16.0128506757
  0
LINE
  5
279
100
AcDbEntity
  8
0
100
AcDbLine
 62
7
  6
CONTINUOUS
 10
6.2125761827
 20
17.073452543
 11
6.3011481888
 21
17.137060444
  0
LINE
  5
27A
100
AcDbEntity
  8
0
100
AcDbLine
 62
7
  6
CONTINUOUS
 10
6.1875854635
 20
17.566294012
 11
6.0286189393
 21
17.4913484684
  0
LINE
  5
27B
100
AcDbEntity
  8
0
100
AcDbLine
 62
7
  6
CONTINUOUS
 10
5.3563712526
 20
16.5942641507
 11
5.1905914972
 21
16.6760229256
  0
LINE
  5
27C
100
AcDbEntity
  8
0
100
AcDbLine
 62
7
  6
CONTINUOUS
 10
4.8839960915
 20
16.537469481
 11
4.9702792777
 21
16.4943545021
  0
LINE
  5
27D
100
AcDbEntity
  8
0
100
AcDbLine
 62
7
  6
CONTINUOUS
 10
6.0149924769
 20
15.9833621593
 11
6.1444438704
 21
15.9174654384
  0
LINE
  5
27E
100
AcDbEntity
  8
0
100
AcDbLine
 62
7
  6
CONTINUOUS
 10
6.8779840241
 20
16.9281124814
 11
6.9075257689
 21
16.7872968311
  0
LINE
  5
27F
100
AcDbEntity
  8
0
100
AcDbLine
 62
7
  6
CONTINUOUS
 10
7.3594612363
 20
16.5579091747
 11
7.3594612363
 21
16.8122875503
  0
LINE
  5
280
100
AcDbEntity
  8
0
100
AcDbLine
 62
7
  6
CONTINUOUS
 10
6.8870860752
 20
16.521607427
 11
6.8393934566
 21
16.4216445499
  0
LINE
  5
281
100
AcDbEntity
  8
0
100
AcDbLine
 62
7
  6
CONTINUOUS
 10
6.8393934566
 20
16.4216445499
 11
6.7712611442
 21
16.3330725439
  0
LINE
  5
282
100
AcDbEntity
  8
0
100
AcDbLine
 62
7
  6
CONTINUOUS
 10
6.1444438704
 20
15.9174654384
 11
6.2943349576
 21
15.8811636907
  0
LINE
  5
283
100
AcDbEntity
  8
0
100
AcDbLine
 62
7
  6
CONTINUOUS
 10
6.36246727
 20
16.2581270003
 11
6.2466423389
 21
16.31492167
  0
LINE
  5
284
100
AcDbEntity
  8
0
100
AcDbLine
 62
7
  6
CONTINUOUS
 10
4.8226770104
 20
17.1393226497
 11
4.9160471255
 21
17.087712765
  0
LINE
  5
285
100
AcDbEntity
  8
0
100
AcDbLine
 62
7
  6
CONTINUOUS
 10
7.5842978671
 20
16.6306191268
 11
7.6024753551
 21
16.4148313187
  0
LINE
  5
286
100
AcDbEntity
  8
0
100
AcDbLine
 62
7
  6
CONTINUOUS
 10
7.5842978671
 20
16.9167482246
 11
7.5842978671
 21
16.6306191268
  0
LINE
  5
287
100
AcDbEntity
  8
0
100
AcDbLine
 62
7
  6
CONTINUOUS
 10
7.6319904858
 20
17.1098075191
 11
7.5842978671
 21
16.9167482246
  0
LINE
  5
288
100
AcDbEntity
  8
0
100
AcDbLine
 62
7
  6
CONTINUOUS
 10
7.3208440545
 20
16.405782496
 11
7.3594612363
 21
16.5579091747
  0
LINE
  5
289
100
AcDbEntity
  8
0
100
AcDbLine
 62
7
  6
CONTINUOUS
 10
7.2209344058
 20
16.2195364327
 11
7.3208440545
 21
16.405782496
  0
LINE
  5
28A
100
AcDbEntity
  8
0
100
AcDbLine
 62
7
  6
CONTINUOUS
 10
7.7523664423
 20
17.2982891738
 11
7.6319904858
 21
17.1098075191
  0
LINE
  5
28B
100
AcDbEntity
  8
0
100
AcDbLine
 62
7
  6
CONTINUOUS
 10
7.9340348659
 20
17.4527312866
 11
7.7523664423
 21
17.2982891738
  0
LINE
  5
28C
100
AcDbEntity
  8
0
100
AcDbLine
 62
7
  6
CONTINUOUS
 10
4.9543906096
 20
16.251313769
 11
4.8408278842
 21
16.1968079191
  0
LINE
  5
28D
100
AcDbEntity
  8
0
100
AcDbLine
 62
7
  6
CONTINUOUS
 10
8.1270941604
 20
17.5413032927
 11
7.9340348659
 21
17.4527312866
  0
LINE
  5
28E
100
AcDbEntity
  8
0
100
AcDbLine
 62
7
  6
CONTINUOUS
 10
6.3011481888
 20
17.137060444
 11
6.3978040281
 21
17.1712769887
  0
LINE
  5
28F
100
AcDbEntity
  8
0
100
AcDbLine
 62
7
  6
CONTINUOUS
 10
10.2051296877
 20
15.8947901532
 11
10.443592781
 21
15.9470071832
  0
LINE
  5
290
100
AcDbEntity
  8
0
100
AcDbLine
 62
7
  6
CONTINUOUS
 10
10.068865063
 20
15.8697728197
 11
10.2051296877
 21
15.8947901532
  0
LINE
  5
291
100
AcDbEntity
  8
0
100
AcDbLine
 62
7
  6
CONTINUOUS
 10
7.995353947
 20
15.9583448258
 11
8.1724979592
 21
15.8925013333
  0
LINE
  5
292
100
AcDbEntity
  8
0
100
AcDbLine
 62
7
  6
CONTINUOUS
 10
5.226919859
 20
17.423216156
 11
5.0702155406
 21
17.5094993422
  0
LINE
  5
293
100
AcDbEntity
  8
0
100
AcDbLine
 62
7
  6
CONTINUOUS
 10
7.8227609604
 20
16.083271808
 11
7.995353947
 21
15.9583448258
  0
LINE
  5
294
100
AcDbEntity
  8
0
100
AcDbLine
 62
7
  6
CONTINUOUS
 10
6.691764575
 20
17.1325094185
 11
6.7803365811
 21
17.0439374124
  0
LINE
  5
295
100
AcDbEntity
  8
0
100
AcDbLine
 62
7
  6
CONTINUOUS
 10
7.6887585413
 20
16.2399761264
 11
7.8227609604
 21
16.083271808
  0
LINE
  5
296
100
AcDbEntity
  8
0
100
AcDbLine
 62
7
  6
CONTINUOUS
 10
6.7803365811
 20
17.0439374124
 11
6.8779840241
 21
16.9281124814
  0
LINE
  5
297
100
AcDbEntity
  8
0
100
AcDbLine
 62
7
  6
CONTINUOUS
 10
7.6024753551
 20
16.4148313187
 11
7.6887585413
 21
16.2399761264
  0
LINE
  5
298
100
AcDbEntity
  8
0
100
AcDbLine
 62
7
  6
CONTINUOUS
 10
7.3140308233
 20
17.021235513
 11
7.2141211746
 21
17.2278946558
  0
LINE
  5
299
100
AcDbEntity
  8
0
100
AcDbLine
 62
7
  6
CONTINUOUS
 10
7.3594612363
 20
16.8122875503
 11
7.3140308233
 21
17.021235513
  0
LINE
  5
29A
100
AcDbEntity
  8
0
100
AcDbLine
 62
7
  6
CONTINUOUS
 10
7.0619412675
 20
16.0401036007
 11
7.2209344058
 21
16.2195364327
  0
LINE
  5
29B
100
AcDbEntity
  8
0
100
AcDbLine
 62
7
  6
CONTINUOUS
 10
6.7712611442
 20
16.3330725439
 11
6.6508851876
 21
16.26270464
  0
LINE
  5
29C
100
AcDbEntity
  8
0
100
AcDbLine
 62
7
  6
CONTINUOUS
 10
5.0906552343
 20
15.8448087147
 11
5.1996669341
 21
15.8993145646
  0
LINE
  5
29D
100
AcDbEntity
  8
0
100
AcDbLine
 62
7
  6
CONTINUOUS
 10
10.2346714325
 20
16.2695178712
 11
10.0597630119
 21
16.235451715
  0
LINE
  5
29E
100
AcDbEntity
  8
0
100
AcDbLine
 62
7
  6
CONTINUOUS
 10
8.4177742837
 20
15.8629595885
 11
8.6471885543
 21
15.8856881021
  0
LINE
  5
29F
100
AcDbEntity
  8
0
100
AcDbLine
 62
7
  6
CONTINUOUS
 10
4.0096136733
 20
15.8448087147
 11
5.0906552343
 21
15.8448087147
  0
LINE
  5
2A0
100
AcDbEntity
  8
0
100
AcDbLine
 62
7
  6
CONTINUOUS
 10
12.7101631915
 20
15.8448087147
 11
13.1552588134
 21
15.8448087147
  0
LINE
  5
2A1
100
AcDbEntity
  8
0
100
AcDbLine
 62
7
  6
CONTINUOUS
 10
10.9358681593
 20
15.8487457225
 11
11.3912725548
 21
15.8487457225
  0
LINE
  5
2A2
100
AcDbEntity
  8
0
100
AcDbLine
 62
7
  6
CONTINUOUS
 10
11.9782712257
 20
15.8487457225
 11
12.4177816518
 21
15.8487457225
  0
LINE
  5
2A3
100
AcDbEntity
  8
0
100
AcDbLine
 62
7
  6
CONTINUOUS
 10
9.9280760269
 20
15.8697728197
 11
10.068865063
 21
15.8697728197
  0
LINE
  5
2A4
100
AcDbEntity
  8
0
100
AcDbLine
 62
7
  6
CONTINUOUS
 10
6.2943349576
 20
15.8811636907
 11
6.6872135495
 21
15.8811636907
  0
LINE
  5
2A5
100
AcDbEntity
  8
0
100
AcDbLine
 62
7
  6
CONTINUOUS
 10
6.5078073316
 20
16.2422649463
 11
6.36246727
 21
16.2581270003
  0
LINE
  5
2A6
100
AcDbEntity
  8
0
100
AcDbLine
 62
7
  6
CONTINUOUS
 10
8.1724979592
 20
15.8925013333
 11
8.4177742837
 21
15.8629595885
  0
LINE
  5
2A7
100
AcDbEntity
  8
0
100
AcDbLine
 62
7
  6
CONTINUOUS
 10
9.7736072999
 20
15.8993145646
 11
9.9280760269
 21
15.8697728197
  0
LINE
  5
2A8
100
AcDbEntity
  8
0
100
AcDbLine
 62
7
  6
CONTINUOUS
 10
7.2141211746
 20
17.2278946558
 11
7.1184999631
 21
17.3452375433
  0
LINE
  5
2A9
100
AcDbEntity
  8
0
100
AcDbLine
 62
7
  6
CONTINUOUS
 10
8.0112692293
 20
16.6101794331
 11
8.0112692293
 21
16.7327909812
  0
LINE
  5
2AA
100
AcDbEntity
  8
0
100
AcDbLine
 62
7
  6
CONTINUOUS
 10
8.0112692293
 20
16.7327909812
 11
8.0430465657
 21
16.8736066315
  0
LINE
  5
2AB
100
AcDbEntity
  8
0
100
AcDbLine
 62
7
  6
CONTINUOUS
 10
8.0430465657
 20
16.8736066315
 11
8.1187027374
 21
17.0390750731
  0
LINE
  5
2AC
100
AcDbEntity
  8
0
100
AcDbLine
 62
7
  6
CONTINUOUS
 10
8.1187027374
 20
17.0390750731
 11
8.2610699653
 21
17.1483980866
  0
LINE
  5
2AD
100
AcDbEntity
  8
0
100
AcDbLine
 62
7
  6
CONTINUOUS
 10
9.8281131498
 20
17.5549297552
 11
9.6305294439
 21
17.493610674
  0
LINE
  5
2AE
100
AcDbEntity
  8
0
100
AcDbLine
 62
7
  6
CONTINUOUS
 10
6.6872135495
 20
15.8811636907
 11
6.9052369491
 21
15.940193952
  0
LINE
  5
2AF
100
AcDbEntity
  8
0
100
AcDbLine
 62
7
  6
CONTINUOUS
 10
8.5427012658
 20
16.2717534627
 11
8.4223253093
 21
16.2558914088
  0
LINE
  5
2B0
100
AcDbEntity
  8
0
100
AcDbLine
 62
7
  6
CONTINUOUS
 10
4.8408278842
 20
16.1968079191
 11
4.4547625236
 21
16.1968079191
  0
LINE
  5
2B1
100
AcDbEntity
  8
0
100
AcDbLine
 62
7
  6
CONTINUOUS
 10
8.4223253093
 20
16.2558914088
 11
8.3065003782
 21
16.2672290514
  0
LINE
  5
2B2
100
AcDbEntity
  8
0
100
AcDbLine
 62
7
  6
CONTINUOUS
 10
6.575939644
 20
17.1802020371
 11
6.691764575
 21
17.1325094185
  0
LINE
  5
2B3
100
AcDbEntity
  8
0
100
AcDbLine
 62
7
  6
CONTINUOUS
 10
9.6123785701
 20
15.9674468769
 11
9.7736072999
 21
15.8993145646
  0
LINE
  5
2B4
100
AcDbEntity
  8
0
100
AcDbLine
 62
7
  6
CONTINUOUS
 10
8.3065003782
 20
16.2672290514
 11
8.1634225223
 21
16.3398857751
  0
LINE
  5
2B5
100
AcDbEntity
  8
0
100
AcDbLine
 62
7
  6
CONTINUOUS
 10
8.1634225223
 20
16.3398857751
 11
8.0771127219
 21
16.4511862948
  0
LINE
  5
2B6
100
AcDbEntity
  8
0
100
AcDbLine
 62
7
  6
CONTINUOUS
 10
8.0771127219
 20
16.4511862948
 11
8.0112692293
 21
16.6101794331
  0
LINE
  5
2B7
100
AcDbEntity
  8
0
100
AcDbLine
 62
7
  6
CONTINUOUS
 10
8.7743511279
 20
16.9485521751
 11
9.1014394557
 21
17.234707887
  0
LINE
  5
2B8
100
AcDbEntity
  8
0
100
AcDbLine
 62
7
  6
CONTINUOUS
 10
9.6305294439
 20
17.493610674
 11
9.4942648192
 21
17.3914122055
  0
LINE
  5
2B9
100
AcDbEntity
  8
0
100
AcDbLine
 62
7
  6
CONTINUOUS
 10
6.9052369491
 20
15.940193952
 11
7.0619412675
 21
16.0401036007
  0
LINE
  5
2BA
100
AcDbEntity
  8
0
100
AcDbLine
 62
7
  6
CONTINUOUS
 10
6.6508851876
 20
16.26270464
 11
6.5078073316
 21
16.2422649463
  0
LINE
  5
2BB
100
AcDbEntity
  8
0
100
AcDbLine
 62
7
  6
CONTINUOUS
 10
4.4547625236
 20
16.5306562497
 11
4.8839960915
 21
16.537469481
  0
LINE
  5
2BC
100
AcDbEntity
  8
0
100
AcDbLine
 62
7
  6
CONTINUOUS
 10
11.3912725548
 20
16.4664609452
 11
11.9782712257
 21
16.4664609452
  0
LINE
  5
2BD
100
AcDbEntity
  8
0
100
AcDbLine
 62
7
  6
CONTINUOUS
 10
10.0597630119
 20
16.235451715
 11
9.9189739757
 21
16.2581270003
  0
LINE
  5
2BE
100
AcDbEntity
  8
0
100
AcDbLine
 62
7
  6
CONTINUOUS
 10
6.9415919251
 20
17.4527312866
 11
6.8121405316
 21
17.5254146245
  0
LINE
  5
2BF
100
AcDbEntity
  8
0
100
AcDbLine
 62
7
  6
CONTINUOUS
 10
7.1184999631
 20
17.3452375433
 11
6.9415919251
 21
17.4527312866
  0
LINE
  5
2C0
100
AcDbEntity
  8
0
100
AcDbLine
 62
7
  6
CONTINUOUS
 10
9.4670118942
 20
16.0628321142
 11
9.6123785701
 21
15.9674468769
  0
LINE
  5
2C1
100
AcDbEntity
  8
0
100
AcDbLine
 62
7
  6
CONTINUOUS
 10
9.0832353534
 20
16.2150120213
 11
8.7856887705
 21
16.4511862948
  0
LINE
  5
2C2
100
AcDbEntity
  8
0
100
AcDbLine
 62
7
  6
CONTINUOUS
 10
9.4942648192
 20
17.3914122055
 11
9.344373732
 21
17.1938284996
  0
LINE
  5
2C3
100
AcDbEntity
  8
0
100
AcDbLine
 62
7
  6
CONTINUOUS
 10
8.7856887705
 20
16.4511862948
 11
8.6426109145
 21
16.3376501836
  0
LINE
  5
2C4
100
AcDbEntity
  8
0
100
AcDbLine
 62
7
  6
CONTINUOUS
 10
8.6426109145
 20
16.3376501836
 11
8.5427012658
 21
16.2717534627
  0
LINE
  5
2C5
100
AcDbEntity
  8
0
100
AcDbLine
 62
7
  6
CONTINUOUS
 10
9.8677127308
 20
17.1350034428
 11
10.054113233
 21
17.1802135077
  0
LINE
  5
2C6
100
AcDbEntity
  8
0
100
AcDbLine
 62
7
  6
CONTINUOUS
 10
4.8294902416
 20
16.8463537065
 11
4.4592869349
 21
16.8463537065
  0
LINE
  5
2C7
100
AcDbEntity
  8
0
100
AcDbLine
 62
7
  6
CONTINUOUS
 10
11.9322308653
 20
16.9059866316
 11
11.4071346088
 21
16.9059866316
  0
LINE
  5
2C8
100
AcDbEntity
  8
0
100
AcDbLine
 62
7
  6
CONTINUOUS
 10
6.8121405316
 20
17.5254146245
 11
6.6304454939
 21
17.5889959114
  0
LINE
  5
2C9
100
AcDbEntity
  8
0
100
AcDbLine
 62
7
  6
CONTINUOUS
 10
8.5313370091
 20
17.1575001377
 11
8.6812547105
 21
17.0416485925
  0
LINE
  5
2CA
100
AcDbEntity
  8
0
100
AcDbLine
 62
7
  6
CONTINUOUS
 10
8.6812547105
 20
17.0416485925
 11
8.7743511279
 21
16.9485521751
  0
LINE
  5
2CB
100
AcDbEntity
  8
0
100
AcDbLine
 62
7
  6
CONTINUOUS
 10
9.328511678
 20
16.235451715
 11
9.4670118942
 21
16.0628321142
  0
LINE
  5
2CC
100
AcDbEntity
  8
0
100
AcDbLine
 62
7
  6
CONTINUOUS
 10
9.212686747
 20
16.7759591885
 11
9.212686747
 21
16.6056017933
  0
LINE
  5
2CD
100
AcDbEntity
  8
0
100
AcDbLine
 62
7
  6
CONTINUOUS
 10
9.2399396719
 20
17.0007958193
 11
9.212686747
 21
16.7759591885
  0
LINE
  5
2CE
100
AcDbEntity
  8
0
100
AcDbLine
 62
7
  6
CONTINUOUS
 10
9.344373732
 20
17.1938284996
 11
9.2399396719
 21
17.0007958193
  0
LINE
  5
2CF
100
AcDbEntity
  8
0
100
AcDbLine
 62
7
  6
CONTINUOUS
 10
9.7644579581
 20
17.0317758567
 11
9.8677127308
 21
17.1350034428
  0
LINE
  5
2D0
100
AcDbEntity
  8
0
100
AcDbLine
 62
7
  6
CONTINUOUS
 10
8.2610699653
 20
17.1483980866
 11
8.39733459
 21
17.1870152684
  0
LINE
  5
2D1
100
AcDbEntity
  8
0
100
AcDbLine
 62
7
  6
CONTINUOUS
 10
9.9689554143
 20
17.5753694489
 11
9.8281131498
 21
17.5549297552
  0
LINE
  5
2D2
100
AcDbEntity
  8
0
100
AcDbLine
 62
7
  6
CONTINUOUS
 10
6.3978040281
 20
17.1712769887
 11
6.575939644
 21
17.1802020371
  0
LINE
  5
2D3
100
AcDbEntity
  8
0
100
AcDbLine
 62
7
  6
CONTINUOUS
 10
4.4547625236
 20
17.1461358809
 11
4.8226770104
 21
17.1393226497
  0
LINE
  5
2D4
100
AcDbEntity
  8
0
100
AcDbLine
 62
7
  6
CONTINUOUS
 10
8.39733459
 20
17.1870152684
 11
8.5313370091
 21
17.1575001377
  0
LINE
  5
2D5
100
AcDbEntity
  8
0
100
AcDbLine
 62
7
  6
CONTINUOUS
 10
9.9189739757
 20
16.2581270003
 11
9.7599808374
 21
16.3807651625
  0
LINE
  5
2D6
100
AcDbEntity
  8
0
100
AcDbLine
 62
7
  6
CONTINUOUS
 10
9.2421752634
 20
16.4103069073
 11
9.328511678
 21
16.235451715
  0
LINE
  5
2D7
100
AcDbEntity
  8
0
100
AcDbLine
 62
7
  6
CONTINUOUS
 10
9.212686747
 20
16.6056017933
 11
9.2421752634
 21
16.4103069073
  0
LINE
  5
2D8
100
AcDbEntity
  8
0
100
AcDbLine
 62
7
  6
CONTINUOUS
 10
9.6623600086
 20
16.8690556059
 11
9.7644579581
 21
17.0317758567
  0
LINE
  5
2D9
100
AcDbEntity
  8
0
100
AcDbLine
 62
7
  6
CONTINUOUS
 10
8.9719348338
 20
16.0809829881
 11
9.0832353534
 21
16.2150120213
  0
LINE
  5
2DA
100
AcDbEntity
  8
0
100
AcDbLine
 62
7
  6
CONTINUOUS
 10
8.8244602885
 20
15.9516395649
 11
8.9719348338
 21
16.0809829881
  0
LINE
  5
2DB
100
AcDbEntity
  8
0
100
AcDbLine
 62
7
  6
CONTINUOUS
 10
10.4186286759
 20
16.9621786375
 11
10.7433749554
 21
17.2210814246
  0
LINE
  5
2DC
100
AcDbEntity
  8
0
100
AcDbLine
 62
7
  6
CONTINUOUS
 10
8.6471885543
 20
15.8856881021
 11
8.8244602885
 21
15.9516395649
  0
LINE
  5
2DD
100
AcDbEntity
  8
0
100
AcDbLine
 62
7
  6
CONTINUOUS
 10
8.299687147
 20
17.5776316546
 11
8.1270941604
 21
17.5413032927
  0
LINE
  5
2DE
100
AcDbEntity
  8
0
100
AcDbLine
 62
7
  6
CONTINUOUS
 10
5.0702155406
 20
17.5094993422
 11
4.0096136733
 21
17.4981616996
  0
LINE
  5
2DF
100
AcDbEntity
  8
0
100
AcDbLine
 62
7
  6
CONTINUOUS
 10
12.4177816518
 20
17.4919472257
 11
11.9294909292
 21
17.4919472257
  0
LINE
  5
2E0
100
AcDbEntity
  8
0
100
AcDbLine
 62
7
  6
CONTINUOUS
 10
11.4071346088
 20
17.5169265911
 11
10.9448744711
 21
17.5169265911
  0
LINE
  5
2E1
100
AcDbEntity
  8
0
100
AcDbLine
 62
7
  6
CONTINUOUS
 10
10.121082093
 20
17.5753694489
 11
9.9689554143
 21
17.5753694489
  0
LINE
  5
2E2
100
AcDbEntity
  8
0
100
AcDbLine
 62
7
  6
CONTINUOUS
 10
8.5177105466
 20
17.5776316546
 11
8.299687147
 21
17.5776316546
  0
LINE
  5
2E3
100
AcDbEntity
  8
0
100
AcDbLine
 62
7
  6
CONTINUOUS
 10
6.6304454939
 20
17.5889959114
 11
6.4851054322
 21
17.5889959114
  0
LINE
  5
2E4
100
AcDbEntity
  8
0
100
AcDbLine
 62
7
  6
CONTINUOUS
 10
13.1575476416
 20
17.4982475517
 11
12.701061731
 21
17.5025785376
  0
LINE
  5
2E5
100
AcDbEntity
  8
0
100
AcDbLine
 62
7
  6
CONTINUOUS
 10
8.7516226143
 20
17.5344900615
 11
8.5177105466
 21
17.5776316546
  0
LINE
  5
2E6
100
AcDbEntity
  8
0
100
AcDbLine
 62
7
  6
CONTINUOUS
 10
10.054113233
 20
17.1802135077
 11
10.1960276366
 21
17.1347716242
  0
LINE
  5
2E7
100
AcDbEntity
  8
0
100
AcDbLine
 62
7
  6
CONTINUOUS
 10
8.9197178038
 20
17.4164029247
 11
8.7516226143
 21
17.5344900615
  0
LINE
  5
2E8
100
AcDbEntity
  8
0
100
AcDbLine
 62
7
  6
CONTINUOUS
 10
10.7501881867
 20
16.2308740753
 11
10.4186286759
 21
16.4784392197
  0
LINE
  5
2E9
100
AcDbEntity
  8
0
100
AcDbLine
 62
7
  6
CONTINUOUS
 10
9.1014394557
 20
17.234707887
 11
8.9197178038
 21
17.4164029247
  0
LINE
  5
2EA
100
AcDbEntity
  8
0
100
AcDbLine
 62
7
  6
CONTINUOUS
 10
9.7599808374
 20
16.3807651625
 11
9.66688442
 21
16.537469481
  0
LINE
  5
2EB
100
AcDbEntity
  8
0
100
AcDbLine
 62
7
  6
CONTINUOUS
 10
9.6373426752
 20
16.6873871824
 11
9.6623600086
 21
16.8690556059
  0
LINE
  5
2EC
100
AcDbEntity
  8
0
100
AcDbLine
 62
7
  6
CONTINUOUS
 10
6.4851054322
 20
17.5889959114
 11
6.1875854635
 21
17.566294012
  0
LINE
  5
2ED
100
AcDbEntity
  8
0
100
AcDbLine
 62
7
  6
CONTINUOUS
 10
10.2914128739
 20
17.5481165239
 11
10.121082093
 21
17.5753694489
  0
LINE
  5
2EE
100
AcDbEntity
  8
0
100
AcDbLine
 62
7
  6
CONTINUOUS
 10
10.1960276366
 20
17.1347716242
 11
10.3266500542
 21
17.0541572592
  0
LINE
  5
2EF
100
AcDbEntity
  8
0
100
AcDbLine
 62
7
  6
CONTINUOUS
 10
9.66688442
 20
16.537469481
 11
9.6373426752
 21
16.6873871824
  0
LINE
  5
2F0
100
AcDbEntity
  8
0
100
AcDbLine
 62
7
  6
CONTINUOUS
 10
10.3413943124
 20
16.3921560335
 11
10.2346714325
 21
16.2695178712
  0
LINE
  5
2F1
100
AcDbEntity
  8
0
100
AcDbLine
 62
7
  6
CONTINUOUS
 10
10.4186286759
 20
16.4784392197
 11
10.3413943124
 21
16.3921560335
  0
LINE
  5
2F2
100
AcDbEntity
  8
0
100
AcDbLine
 62
7
  6
CONTINUOUS
 10
10.4322551384
 20
17.4913484684
 11
10.2914128739
 21
17.5481165239
  0
LINE
  5
2F3
100
AcDbEntity
  8
0
100
AcDbLine
 62
7
  6
CONTINUOUS
 10
10.3266500542
 20
17.0541572592
 11
10.4186286759
 21
16.9621786375
  0
LINE
  5
2F4
100
AcDbEntity
  8
0
100
AcDbLine
 62
7
  6
CONTINUOUS
 10
10.443592781
 20
15.9470071832
 11
10.623025613
 21
16.0628321142
  0
LINE
  5
2F5
100
AcDbEntity
  8
0
100
AcDbLine
 62
7
  6
CONTINUOUS
 10
10.5775685859
 20
17.4004876424
 11
10.4322551384
 21
17.4913484684
  0
LINE
  5
2F6
100
AcDbEntity
  8
0
100
AcDbLine
 62
7
  6
CONTINUOUS
 10
10.623025613
 20
16.0628321142
 11
10.7501881867
 21
16.2308740753
  0
LINE
  5
2F7
100
AcDbEntity
  8
0
100
AcDbLine
 62
7
  6
CONTINUOUS
 10
10.7433749554
 20
17.2210814246
 11
10.5775685859
 21
17.4004876424
  0
LINE
  5
2F8
100
AcDbEntity
  8
0
100
AcDbLine
 62
7
  6
CONTINUOUS
 10
10.9448744711
 20
17.5169265911
 11
10.9358681593
 21
15.8487457225
  0
LINE
  5
2F9
100
AcDbEntity
  8
0
100
AcDbLine
 62
7
  6
CONTINUOUS
 10
11.3912725548
 20
15.8487457225
 11
11.3912725548
 21
16.4664609452
  0
LINE
  5
2FA
100
AcDbEntity
  8
0
100
AcDbLine
 62
7
  6
CONTINUOUS
 10
11.4071346088
 20
16.9059866316
 11
11.4071346088
 21
17.5169265911
  0
LINE
  5
2FB
100
AcDbEntity
  8
0
100
AcDbLine
 62
7
  6
CONTINUOUS
 10
11.9294909292
 20
17.4919472257
 11
11.9322308653
 21
16.9059866316
  0
LINE
  5
2FC
100
AcDbEntity
  8
0
100
AcDbLine
 62
7
  6
CONTINUOUS
 10
11.9782712257
 20
16.4664609452
 11
11.9782712257
 21
15.8487457225
  0
LINE
  5
2FD
100
AcDbEntity
  8
0
100
AcDbLine
 62
7
  6
CONTINUOUS
 10
12.4177816518
 20
15.8487457225
 11
12.4177816518
 21
17.4919472257
  0
LINE
  5
2FE
100
AcDbEntity
  8
0
100
AcDbLine
 62
7
  6
CONTINUOUS
 10
12.701061731
 20
17.5025785376
 11
12.7101631915
 21
15.8448087147
  0
LINE
  5
2FF
100
AcDbEntity
  8
0
100
AcDbLine
 62
7
  6
CONTINUOUS
 10
13.1552588134
 20
15.8448087147
 11
13.1575476416
 21
17.4982475517
  0
LINE
  5
300
100
AcDbEntity
  8
06___PRT_ALL_SURFS
100
AcDbLine
 62
7
  6
CONTINUOUS
 10
2.5244476422
 20
18.2437097781
 11
2.5244476422
 21
3.3237097781
  0
LINE
  5
301
100
AcDbEntity
  8
06___PRT_ALL_SURFS
100
AcDbLine
 62
7
  6
CONTINUOUS
 10
2.8994476422
 20
2.9487097781
 11
27.0494476422
 21
2.9487097781
  0
LINE
  5
302
100
AcDbEntity
  8
06___PRT_ALL_SURFS
100
AcDbLine
 62
7
  6
CONTINUOUS
 10
27.0494476422
 20
18.6187097781
 11
2.8994476422
 21
18.6187097781
  0
LINE
  5
303
100
AcDbEntity
  8
06___PRT_ALL_SURFS
100
AcDbLine
 62
7
  6
CONTINUOUS
 10
27.4244476422
 20
3.3237097781
 11
27.4244476422
 21
18.2437097781
  0
LINE
  5
304
100
AcDbEntity
  8
0
100
AcDbLine
 62
7
  6
CONTINUOUS
 10
5.1375197642
 20
6.9654135901
 11
5.1375197642
 21
7.1154135901
  0
LINE
  5
305
100
AcDbEntity
  8
0
100
AcDbLine
 62
7
  6
CONTINUOUS
 10
6.0183238728
 20
6.8576891187
 11
6.0146099356
 21
6.9285552604
  0
LINE
  5
306
100
AcDbEntity
  8
0
100
AcDbLine
 62
7
  6
CONTINUOUS
 10
6.2125039359
 20
6.7905318242
 11
6.296880883
 21
5.1805237643
  0
LINE
  5
307
100
AcDbEntity
  8
0
100
AcDbLine
 62
7
  6
CONTINUOUS
 10
6.3150225658
 20
6.9056572918
 11
6.3867350333
 21
5.5373018972
  0
LINE
  5
308
100
AcDbEntity
  8
06___PRT_ALL_SURFS
100
AcDbLine
 62
7
  6
CONTINUOUS
 10
6.3895643376
 20
5.4833155536
 11
6.3911876481
 21
5.4523409446
  0
LINE
  5
309
100
AcDbEntity
  8
0
100
AcDbLine
 62
7
  6
CONTINUOUS
 10
6.3375197642
 20
6.9654135901
 11
6.3375197642
 21
7.0904135901
  0
LINE
  5
30A
100
AcDbEntity
  8
0
100
AcDbLine
 62
7
  6
CONTINUOUS
 10
6.3767942287
 20
5.1581379995
 11
6.3831438731
 21
5.2792964331
  0
LINE
  5
30B
100
AcDbEntity
  8
0
100
AcDbLine
 62
7
  6
CONTINUOUS
 10
6.320470557
 20
5.1581379995
 11
9.3045689714
 21
5.1581379995
  0
LINE
  5
30C
100
AcDbEntity
  8
0
100
AcDbLine
 62
7
  6
CONTINUOUS
 10
8.3243307878
 20
5.404674964
 11
8.2613702264
 21
5.3935733183
  0
LINE
  5
30D
100
AcDbEntity
  8
0
100
AcDbLine
 62
7
  6
CONTINUOUS
 10
8.2646066301
 20
5.3226967373
 11
9.1425918298
 21
5.3687099918
  0
LINE
  5
30E
100
AcDbEntity
  8
0
100
AcDbLine
 62
7
  6
CONTINUOUS
 10
8.2633703477
 20
5.3226643641
 11
8.2646066301
 21
5.3226967373
  0
LINE
  5
30F
100
AcDbEntity
  8
0
100
AcDbLine
 62
7
  6
CONTINUOUS
 10
8.2633704961
 20
5.3226807996
 11
8.2646066301
 21
5.3226967373
  0
LINE
  5
310
100
AcDbEntity
  8
0
100
AcDbLine
 62
7
  6
CONTINUOUS
 10
8.2633703477
 20
5.3226643641
 11
7.3616691807
 21
5.3226643641
  0
LINE
  5
311
100
AcDbEntity
  8
0
100
AcDbLine
 62
7
  6
CONTINUOUS
 10
7.3616690323
 20
5.3226807996
 11
7.3604328983
 21
5.3226967373
  0
LINE
  5
312
100
AcDbEntity
  8
0
100
AcDbLine
 62
7
  6
CONTINUOUS
 10
7.3616691807
 20
5.3226643641
 11
7.3604328983
 21
5.3226967373
  0
LINE
  5
313
100
AcDbEntity
  8
0
100
AcDbLine
 62
7
  6
CONTINUOUS
 10
7.3604328983
 20
5.3226967373
 11
6.4824476986
 21
5.3687099918
  0
LINE
  5
314
100
AcDbEntity
  8
0
100
AcDbLine
 62
7
  6
CONTINUOUS
 10
7.3007087406
 20
5.404674964
 11
7.363669302
 21
5.3935733183
  0
LINE
  5
315
100
AcDbEntity
  8
06___PRT_ALL_SURFS
100
AcDbLine
 62
6
  6
CONTINUOUS
 10
8.1274803941
 20
5.394358472
 11
9.2338518803
 21
5.4523409446
  0
LINE
  5
316
100
AcDbEntity
  8
0
100
AcDbLine
 62
7
  6
CONTINUOUS
 10
8.3243307878
 20
5.404674964
 11
9.1488909287
 21
5.4478883298
  0
LINE
  5
317
100
AcDbEntity
  8
06___PRT_ALL_SURFS
100
AcDbLine
 62
7
  6
CONTINUOUS
 10
7.4975591343
 20
5.394358472
 11
8.1274803941
 21
5.394358472
  0
LINE
  5
318
100
AcDbEntity
  8
0
100
AcDbLine
 62
7
  6
CONTINUOUS
 10
8.3243307878
 20
5.404674964
 11
7.3007087406
 21
5.404674964
  0
LINE
  5
319
100
AcDbEntity
  8
0
100
AcDbLine
 62
7
  6
CONTINUOUS
 10
7.3007087406
 20
5.404674964
 11
6.4761485997
 21
5.4478883298
  0
LINE
  5
31A
100
AcDbEntity
  8
06___PRT_ALL_SURFS
100
AcDbLine
 62
6
  6
CONTINUOUS
 10
7.4975591343
 20
5.394358472
 11
6.3911876481
 21
5.4523409446
  0
LINE
  5
31B
100
AcDbEntity
  8
0
100
AcDbLine
 62
7
  6
CONTINUOUS
 10
7.3830995348
 20
5.3723689401
 11
7.385201339
 21
5.3483452084
  0
LINE
  5
31C
100
AcDbEntity
  8
0
100
AcDbLine
 62
7
  6
CONTINUOUS
 10
8.2419399937
 20
5.3723689401
 11
8.2398381895
 21
5.3483452084
  0
LINE
  5
31D
100
AcDbEntity
  8
0
100
AcDbLine
 62
7
  6
CONTINUOUS
 10
9.5831259816
 20
6.8353033539
 11
9.4597149406
 21
6.8353033539
  0
LINE
  5
31E
100
AcDbEntity
  8
0
100
AcDbLine
 62
7
  6
CONTINUOUS
 10
6.1653245878
 20
6.8353033539
 11
6.0419135468
 21
6.8353033539
  0
LINE
  5
31F
100
AcDbEntity
  8
0
100
AcDbLine
 62
7
  6
CONTINUOUS
 10
6.0381996097
 20
6.9534135901
 11
9.5868399187
 21
6.9534135901
  0
LINE
  5
320
100
AcDbEntity
  8
0
100
AcDbLine
 62
7
  6
CONTINUOUS
 10
5.1375197642
 20
6.9654135901
 11
6.3375197642
 21
6.9654135901
  0
LINE
  5
321
100
AcDbEntity
  8
0
100
AcDbLine
 62
7
  6
CONTINUOUS
 10
9.2875197642
 20
6.9654135901
 11
10.4875197642
 21
6.9654135901
  0
LINE
  5
322
100
AcDbEntity
  8
0
100
AcDbLine
 62
7
  6
CONTINUOUS
 10
5.1375197642
 20
7.1154135901
 11
6.3125197642
 21
7.1154135901
  0
LINE
  5
323
100
AcDbEntity
  8
0
100
AcDbLine
 62
7
  6
CONTINUOUS
 10
9.3125197642
 20
7.1154135901
 11
10.4875197642
 21
7.1154135901
  0
LINE
  5
324
100
AcDbEntity
  8
0
100
AcDbLine
 62
7
  6
CONTINUOUS
 10
9.2482452997
 20
5.1581379995
 11
9.2418956553
 21
5.2792964331
  0
LINE
  5
325
100
AcDbEntity
  8
0
100
AcDbLine
 62
7
  6
CONTINUOUS
 10
9.2875197642
 20
6.9654135901
 11
9.2875197642
 21
7.0904135901
  0
LINE
  5
326
100
AcDbEntity
  8
0
100
AcDbLine
 62
7
  6
CONTINUOUS
 10
9.3100169627
 20
6.9056572918
 11
9.2383044952
 21
5.5373018972
  0
LINE
  5
327
100
AcDbEntity
  8
06___PRT_ALL_SURFS
100
AcDbLine
 62
7
  6
CONTINUOUS
 10
9.2338518803
 20
5.4523409446
 11
9.2354751908
 21
5.4833155536
  0
LINE
  5
328
100
AcDbEntity
  8
0
100
AcDbLine
 62
7
  6
CONTINUOUS
 10
9.4125355925
 20
6.7905318242
 11
9.3281586455
 21
5.1805237643
  0
LINE
  5
329
100
AcDbEntity
  8
0
100
AcDbLine
 62
7
  6
CONTINUOUS
 10
9.6067156557
 20
6.8576891187
 11
9.6104295928
 21
6.9285552604
  0
LINE
  5
32A
100
AcDbEntity
  8
0
100
AcDbLine
 62
7
  6
CONTINUOUS
 10
10.4875197642
 20
6.9654135901
 11
10.4875197642
 21
7.1154135901
  0
LINE
  5
32B
100
AcDbEntity
  8
0
100
AcDbLine
 62
7
  6
CONTINUOUS
 10
14.9044731304
 20
6.9335807926
 11
14.9044731304
 21
7.1335807926
  0
LINE
  5
32C
100
AcDbEntity
  8
0
100
AcDbLine
 62
7
  6
CONTINUOUS
 10
15.9478772389
 20
6.8258563212
 11
15.9441633018
 21
6.8967224629
  0
LINE
  5
32D
100
AcDbEntity
  8
0
100
AcDbLine
 62
7
  6
CONTINUOUS
 10
16.1044731304
 20
6.9585807926
 11
16.1044731304
 21
7.1085807926
  0
LINE
  5
32E
100
AcDbEntity
  8
0
100
AcDbLine
 62
7
  6
CONTINUOUS
 10
16.1420573021
 20
6.7586990267
 11
16.2264342491
 21
5.1486909668
  0
LINE
  5
32F
100
AcDbEntity
  8
0
100
AcDbLine
 62
7
  6
CONTINUOUS
 10
16.2445759319
 20
6.8738244943
 11
16.3162883994
 21
5.5054690997
  0
LINE
  5
330
100
AcDbEntity
  8
06___PRT_ALL_SURFS
100
AcDbLine
 62
7
  6
CONTINUOUS
 10
16.3191177038
 20
5.4514827561
 11
16.3207410143
 21
5.4205081471
  0
LINE
  5
331
100
AcDbEntity
  8
0
100
AcDbLine
 62
7
  6
CONTINUOUS
 10
16.3063475948
 20
5.126305202
 11
16.3126972393
 21
5.2474636356
  0
LINE
  5
332
100
AcDbEntity
  8
0
100
AcDbLine
 62
7
  6
CONTINUOUS
 10
18.253884154
 20
5.3728421665
 11
18.1909235926
 21
5.3617405208
  0
LINE
  5
333
100
AcDbEntity
  8
0
100
AcDbLine
 62
7
  6
CONTINUOUS
 10
18.1941599963
 20
5.2908639398
 11
19.0721451959
 21
5.3368771943
  0
LINE
  5
334
100
AcDbEntity
  8
0
100
AcDbLine
 62
7
  6
CONTINUOUS
 10
18.1929237139
 20
5.2908315666
 11
18.1941599963
 21
5.2908639398
  0
LINE
  5
335
100
AcDbEntity
  8
0
100
AcDbLine
 62
7
  6
CONTINUOUS
 10
18.1929238623
 20
5.2908480021
 11
18.1941599963
 21
5.2908639398
  0
LINE
  5
336
100
AcDbEntity
  8
0
100
AcDbLine
 62
7
  6
CONTINUOUS
 10
16.2500239232
 20
5.126305202
 11
19.2341223376
 21
5.126305202
  0
LINE
  5
337
100
AcDbEntity
  8
0
100
AcDbLine
 62
7
  6
CONTINUOUS
 10
18.1929237139
 20
5.2908315666
 11
17.2912225469
 21
5.2908315666
  0
LINE
  5
338
100
AcDbEntity
  8
0
100
AcDbLine
 62
7
  6
CONTINUOUS
 10
17.2912223985
 20
5.2908480021
 11
17.2899862645
 21
5.2908639398
  0
LINE
  5
339
100
AcDbEntity
  8
0
100
AcDbLine
 62
7
  6
CONTINUOUS
 10
17.2912225469
 20
5.2908315666
 11
17.2899862645
 21
5.2908639398
  0
LINE
  5
33A
100
AcDbEntity
  8
0
100
AcDbLine
 62
7
  6
CONTINUOUS
 10
17.2899862645
 20
5.2908639398
 11
16.4120010648
 21
5.3368771943
  0
LINE
  5
33B
100
AcDbEntity
  8
0
100
AcDbLine
 62
7
  6
CONTINUOUS
 10
17.2302621068
 20
5.3728421665
 11
17.2932226682
 21
5.3617405208
  0
LINE
  5
33C
100
AcDbEntity
  8
06___PRT_ALL_SURFS
100
AcDbLine
 62
6
  6
CONTINUOUS
 10
18.0570337603
 20
5.3625256745
 11
19.1634052465
 21
5.4205081471
  0
LINE
  5
33D
100
AcDbEntity
  8
0
100
AcDbLine
 62
7
  6
CONTINUOUS
 10
18.253884154
 20
5.3728421665
 11
19.0784442949
 21
5.4160555323
  0
LINE
  5
33E
100
AcDbEntity
  8
06___PRT_ALL_SURFS
100
AcDbLine
 62
7
  6
CONTINUOUS
 10
17.4271125005
 20
5.3625256745
 11
18.0570337603
 21
5.3625256745
  0
LINE
  5
33F
100
AcDbEntity
  8
0
100
AcDbLine
 62
7
  6
CONTINUOUS
 10
18.253884154
 20
5.3728421665
 11
17.2302621068
 21
5.3728421665
  0
LINE
  5
340
100
AcDbEntity
  8
0
100
AcDbLine
 62
7
  6
CONTINUOUS
 10
17.2302621068
 20
5.3728421665
 11
16.4057019658
 21
5.4160555323
  0
LINE
  5
341
100
AcDbEntity
  8
06___PRT_ALL_SURFS
100
AcDbLine
 62
6
  6
CONTINUOUS
 10
17.4271125005
 20
5.3625256745
 11
16.3207410143
 21
5.4205081471
  0
LINE
  5
342
100
AcDbEntity
  8
0
100
AcDbLine
 62
7
  6
CONTINUOUS
 10
17.3126529009
 20
5.3405361426
 11
17.3147547051
 21
5.3165124109
  0
LINE
  5
343
100
AcDbEntity
  8
0
100
AcDbLine
 62
7
  6
CONTINUOUS
 10
18.1714933598
 20
5.3405361426
 11
18.1693915556
 21
5.3165124109
  0
LINE
  5
344
100
AcDbEntity
  8
0
100
AcDbLine
 62
7
  6
CONTINUOUS
 10
19.5126793478
 20
6.8034705564
 11
19.3892683068
 21
6.8034705564
  0
LINE
  5
345
100
AcDbEntity
  8
0
100
AcDbLine
 62
7
  6
CONTINUOUS
 10
16.094877954
 20
6.8034705564
 11
15.971466913
 21
6.8034705564
  0
LINE
  5
346
100
AcDbEntity
  8
0
100
AcDbLine
 62
7
  6
CONTINUOUS
 10
15.9677529759
 20
6.9215807926
 11
19.5163932849
 21
6.9215807926
  0
LINE
  5
347
100
AcDbEntity
  8
0
100
AcDbLine
 62
7
  6
CONTINUOUS
 10
14.9044731304
 20
6.9335807926
 11
16.0794731304
 21
6.9335807926
  0
LINE
  5
348
100
AcDbEntity
  8
0
100
AcDbLine
 62
7
  6
CONTINUOUS
 10
19.4046731304
 20
6.9335807926
 11
20.5796731304
 21
6.9335807926
  0
LINE
  5
349
100
AcDbEntity
  8
0
100
AcDbLine
 62
7
  6
CONTINUOUS
 10
14.9044731304
 20
7.1335807926
 11
16.0794731304
 21
7.1335807926
  0
LINE
  5
34A
100
AcDbEntity
  8
0
100
AcDbLine
 62
7
  6
CONTINUOUS
 10
19.4046731304
 20
7.1335807926
 11
20.5796731304
 21
7.1335807926
  0
LINE
  5
34B
100
AcDbEntity
  8
0
100
AcDbLine
 62
7
  6
CONTINUOUS
 10
19.1777986659
 20
5.126305202
 11
19.1714490215
 21
5.2474636356
  0
LINE
  5
34C
100
AcDbEntity
  8
0
100
AcDbLine
 62
7
  6
CONTINUOUS
 10
19.3796731304
 20
6.9585807926
 11
19.3796731304
 21
7.1085807926
  0
LINE
  5
34D
100
AcDbEntity
  8
0
100
AcDbLine
 62
7
  6
CONTINUOUS
 10
19.2395703288
 20
6.8738244943
 11
19.1678578613
 21
5.5054690997
  0
LINE
  5
34E
100
AcDbEntity
  8
06___PRT_ALL_SURFS
100
AcDbLine
 62
7
  6
CONTINUOUS
 10
19.1634052465
 20
5.4205081471
 11
19.165028557
 21
5.4514827561
  0
LINE
  5
34F
100
AcDbEntity
  8
0
100
AcDbLine
 62
7
  6
CONTINUOUS
 10
19.3420889587
 20
6.7586990267
 11
19.2577120116
 21
5.1486909668
  0
LINE
  5
350
100
AcDbEntity
  8
0
100
AcDbLine
 62
7
  6
CONTINUOUS
 10
19.5362690218
 20
6.8258563212
 11
19.5399829589
 21
6.8967224629
  0
LINE
  5
351
100
AcDbEntity
  8
0
100
AcDbLine
 62
7
  6
CONTINUOUS
 10
20.5796731304
 20
6.9335807926
 11
20.5796731304
 21
7.1335807926
  0
ARC
  5
352
100
AcDbEntity
  8
06___PRT_ALL_SURFS
100
AcDbCircle
 62
7
  6
CONTINUOUS
 10
27.0494476422
 20
18.2437097781
 40
0.375
100
AcDbArc
 50
0.0
 51
90.0
  0
ARC
  5
353
100
AcDbEntity
  8
06___PRT_ALL_SURFS
100
AcDbCircle
 62
7
  6
CONTINUOUS
 10
27.0494476422
 20
3.3237097781
 40
0.375
100
AcDbArc
 50
270.0
 51
360.0
  0
ARC
  5
354
100
AcDbEntity
  8
06___PRT_ALL_SURFS
100
AcDbCircle
 62
7
  6
CONTINUOUS
 10
2.8994476422
 20
3.3237097781
 40
0.375
100
AcDbArc
 50
180.0
 51
270.0
  0
ARC
  5
355
100
AcDbEntity
  8
06___PRT_ALL_SURFS
100
AcDbCircle
 62
7
  6
CONTINUOUS
 10
2.8994476422
 20
18.2437097781
 40
0.375
100
AcDbArc
 50
90.0
 51
180.0
  0
ARC
  5
356
100
AcDbEntity
  8
0
100
AcDbCircle
 62
2
  6
CONTINUOUS
 10
27.0494476422
 20
18.2437097781
 40
0.375
100
AcDbArc
 50
90.0
 51
226.5592236331
  0
ARC
  5
357
100
AcDbEntity
  8
0
100
AcDbCircle
 62
7
  6
CONTINUOUS
 10
9.143945799
 20
5.5422470269
 40
0.094488189
100
AcDbArc
 50
273.0000000016
 51
357.0
  0
ARC
  5
358
100
AcDbEntity
  8
0
100
AcDbCircle
 62
7
  6
CONTINUOUS
 10
6.4810937295
 20
5.5422470269
 40
0.094488189
100
AcDbArc
 50
183.0
 51
266.9999999984
  0
ARC
  5
359
100
AcDbEntity
  8
0
100
AcDbCircle
 62
7
  6
CONTINUOUS
 10
6.4775025693
 20
5.2743513034
 40
0.0944881889
100
AcDbArc
 50
87.0
 51
177.0
  0
ARC
  5
35A
100
AcDbEntity
  8
0
100
AcDbCircle
 62
7
  6
CONTINUOUS
 10
9.1475369591
 20
5.2743513034
 40
0.0944881889
100
AcDbArc
 50
3.0
 51
93.0
  0
ARC
  5
35B
100
AcDbEntity
  8
0
100
AcDbCircle
 62
7
  6
CONTINUOUS
 10
6.2646979278
 20
6.9030198893
 40
0.0503937008
100
AcDbArc
 50
3.0
 51
90.0
  0
ARC
  5
35C
100
AcDbEntity
  8
0
100
AcDbCircle
 62
7
  6
CONTINUOUS
 10
9.3603416006
 20
6.9030198893
 40
0.0503937008
100
AcDbArc
 50
90.0
 51
177.0
  0
ARC
  5
35D
100
AcDbEntity
  8
0
100
AcDbCircle
 62
7
  6
CONTINUOUS
 10
6.1653245878
 20
6.7880592594
 40
0.0472440945
100
AcDbArc
 50
3.0
 51
90.0
  0
ARC
  5
35E
100
AcDbEntity
  8
0
100
AcDbCircle
 62
7
  6
CONTINUOUS
 10
9.4597149406
 20
6.7880592594
 40
0.0472440945
100
AcDbArc
 50
90.0
 51
177.0
  0
ARC
  5
35F
100
AcDbEntity
  8
0
100
AcDbCircle
 62
7
  6
CONTINUOUS
 10
6.3125197642
 20
7.0904135901
 40
0.025
100
AcDbArc
 50
0.0
 51
90.0
  0
ARC
  5
360
100
AcDbEntity
  8
0
100
AcDbCircle
 62
7
  6
CONTINUOUS
 10
9.3125197642
 20
7.0904135901
 40
0.025
100
AcDbArc
 50
90.0
 51
180.0
  0
ARC
  5
361
100
AcDbEntity
  8
0
100
AcDbCircle
 62
7
  6
CONTINUOUS
 10
8.2633703477
 20
5.3462864113
 40
0.0236220472
100
AcDbArc
 50
175.0
 51
270.0003601782
  0
ARC
  5
362
100
AcDbEntity
  8
0
100
AcDbCircle
 62
7
  6
CONTINUOUS
 10
7.3616691807
 20
5.3462864113
 40
0.0236220472
100
AcDbArc
 50
269.9996398218
 51
5.0
  0
ARC
  5
363
100
AcDbEntity
  8
0
100
AcDbCircle
 62
7
  6
CONTINUOUS
 10
9.3045689714
 20
5.1817600468
 40
0.0236220472
100
AcDbArc
 50
270.0
 51
357.0
  0
ARC
  5
364
100
AcDbEntity
  8
0
100
AcDbCircle
 62
7
  6
CONTINUOUS
 10
6.320470557
 20
5.1817600468
 40
0.0236220472
100
AcDbArc
 50
183.0
 51
270.0
  0
ARC
  5
365
100
AcDbEntity
  8
0
100
AcDbCircle
 62
7
  6
CONTINUOUS
 10
9.5831259816
 20
6.8589254011
 40
0.0236220472
100
AcDbArc
 50
270.0
 51
357.0
  0
ARC
  5
366
100
AcDbEntity
  8
0
100
AcDbCircle
 62
7
  6
CONTINUOUS
 10
6.0419135468
 20
6.8589254011
 40
0.0236220472
100
AcDbArc
 50
183.0
 51
270.0
  0
ARC
  5
367
100
AcDbEntity
  8
0
100
AcDbCircle
 62
7
  6
CONTINUOUS
 10
9.5868399187
 20
6.9297915428
 40
0.0236220472
100
AcDbArc
 50
357.0
 51
90.0
  0
ARC
  5
368
100
AcDbEntity
  8
0
100
AcDbCircle
 62
7
  6
CONTINUOUS
 10
6.0381996097
 20
6.9297915428
 40
0.0236220472
100
AcDbArc
 50
90.0
 51
183.0
  0
ARC
  5
369
100
AcDbEntity
  8
0
100
AcDbCircle
 62
7
  6
CONTINUOUS
 10
8.2654721519
 20
5.370310143
 40
0.0236220472
100
AcDbArc
 50
100.0
 51
175.0
  0
ARC
  5
36A
100
AcDbEntity
  8
0
100
AcDbCircle
 62
7
  6
CONTINUOUS
 10
7.3595673766
 20
5.370310143
 40
0.0236220472
100
AcDbArc
 50
5.0
 51
80.0
  0
ARC
  5
36B
100
AcDbEntity
  8
0
100
AcDbCircle
 62
7
  6
CONTINUOUS
 10
19.0734991651
 20
5.5104142294
 40
0.094488189
100
AcDbArc
 50
273.0000000016
 51
357.0
  0
ARC
  5
36C
100
AcDbEntity
  8
0
100
AcDbCircle
 62
7
  6
CONTINUOUS
 10
16.4106470956
 20
5.5104142294
 40
0.094488189
100
AcDbArc
 50
183.0
 51
266.9999999984
  0
ARC
  5
36D
100
AcDbEntity
  8
0
100
AcDbCircle
 62
7
  6
CONTINUOUS
 10
16.4070559355
 20
5.2425185059
 40
0.0944881889
100
AcDbArc
 50
87.0
 51
177.0
  0
ARC
  5
36E
100
AcDbEntity
  8
0
100
AcDbCircle
 62
7
  6
CONTINUOUS
 10
19.0770903253
 20
5.2425185059
 40
0.0944881889
100
AcDbArc
 50
3.0
 51
93.0
  0
ARC
  5
36F
100
AcDbEntity
  8
0
100
AcDbCircle
 62
7
  6
CONTINUOUS
 10
16.1942512939
 20
6.8711870918
 40
0.0503937008
100
AcDbArc
 50
3.0
 51
90.0
  0
ARC
  5
370
100
AcDbEntity
  8
0
100
AcDbCircle
 62
7
  6
CONTINUOUS
 10
19.2898949668
 20
6.8711870918
 40
0.0503937008
100
AcDbArc
 50
90.0
 51
177.0
  0
ARC
  5
371
100
AcDbEntity
  8
0
100
AcDbCircle
 62
7
  6
CONTINUOUS
 10
16.094877954
 20
6.7562264619
 40
0.0472440945
100
AcDbArc
 50
3.0
 51
90.0
  0
ARC
  5
372
100
AcDbEntity
  8
0
100
AcDbCircle
 62
7
  6
CONTINUOUS
 10
19.3892683068
 20
6.7562264619
 40
0.0472440945
100
AcDbArc
 50
90.0
 51
177.0
  0
ARC
  5
373
100
AcDbEntity
  8
0
100
AcDbCircle
 62
7
  6
CONTINUOUS
 10
16.0794731304
 20
7.1085807926
 40
0.025
100
AcDbArc
 50
0.0
 51
90.0
  0
ARC
  5
374
100
AcDbEntity
  8
0
100
AcDbCircle
 62
7
  6
CONTINUOUS
 10
16.0794731304
 20
6.9585807926
 40
0.025
100
AcDbArc
 50
270.0
 51
360.0
  0
ARC
  5
375
100
AcDbEntity
  8
0
100
AcDbCircle
 62
7
  6
CONTINUOUS
 10
19.4046731304
 20
6.9585807926
 40
0.025
100
AcDbArc
 50
180.0
 51
270.0
  0
ARC
  5
376
100
AcDbEntity
  8
0
100
AcDbCircle
 62
7
  6
CONTINUOUS
 10
19.4046731304
 20
7.1085807926
 40
0.025
100
AcDbArc
 50
90.0
 51
180.0
  0
ARC
  5
377
100
AcDbEntity
  8
0
100
AcDbCircle
 62
7
  6
CONTINUOUS
 10
18.1929237139
 20
5.3144536138
 40
0.0236220472
100
AcDbArc
 50
175.0
 51
270.0003601782
  0
ARC
  5
378
100
AcDbEntity
  8
0
100
AcDbCircle
 62
7
  6
CONTINUOUS
 10
17.2912225469
 20
5.3144536138
 40
0.0236220472
100
AcDbArc
 50
269.9996398218
 51
5.0
  0
ARC
  5
379
100
AcDbEntity
  8
0
100
AcDbCircle
 62
7
  6
CONTINUOUS
 10
19.2341223376
 20
5.1499272493
 40
0.0236220472
100
AcDbArc
 50
270.0
 51
357.0
  0
ARC
  5
37A
100
AcDbEntity
  8
0
100
AcDbCircle
 62
7
  6
CONTINUOUS
 10
16.2500239232
 20
5.1499272493
 40
0.0236220472
100
AcDbArc
 50
183.0
 51
270.0
  0
ARC
  5
37B
100
AcDbEntity
  8
0
100
AcDbCircle
 62
7
  6
CONTINUOUS
 10
19.5126793478
 20
6.8270926036
 40
0.0236220472
100
AcDbArc
 50
270.0
 51
357.0
  0
ARC
  5
37C
100
AcDbEntity
  8
0
100
AcDbCircle
 62
7
  6
CONTINUOUS
 10
15.971466913
 20
6.8270926036
 40
0.0236220472
100
AcDbArc
 50
183.0
 51
270.0
  0
ARC
  5
37D
100
AcDbEntity
  8
0
100
AcDbCircle
 62
7
  6
CONTINUOUS
 10
19.5163932849
 20
6.8979587453
 40
0.0236220472
100
AcDbArc
 50
357.0
 51
90.0
  0
ARC
  5
37E
100
AcDbEntity
  8
0
100
AcDbCircle
 62
7
  6
CONTINUOUS
 10
15.9677529759
 20
6.8979587453
 40
0.0236220472
100
AcDbArc
 50
90.0
 51
183.0
  0
ARC
  5
37F
100
AcDbEntity
  8
0
100
AcDbCircle
 62
7
  6
CONTINUOUS
 10
18.195025518
 20
5.3384773455
 40
0.0236220472
100
AcDbArc
 50
100.0
 51
175.0
  0
ARC
  5
380
100
AcDbEntity
  8
0
100
AcDbCircle
 62
7
  6
CONTINUOUS
 10
17.2891207427
 20
5.3384773455
 40
0.0236220472
100
AcDbArc
 50
5.0
 51
80.0
  0
SPLINE
  5
381
100
AcDbEntity
  8
06___PRT_ALL_SURFS
100
AcDbSpline
 62
7
  6
CONTINUOUS
 70
0
 71
3
 72
13
 73
9
 74
0
 42
0.0000001
 43
0.0000001
 44
0.0000000001
 40
0.0
 40
0.0
 40
0.0
 40
0.0
 40
0.1883904128
 40
0.3585173517
 40
0.5197182555
 40
0.6783429799
 40
0.8382060281
 40
1.0
 40
1.0
 40
1.0
 40
1.0
 10
9.2354751908
 20
5.4833155536
 30
0.0
 10
9.1461533711
 20
5.4799990338
 30
0.0
 10
8.9761578516
 20
5.4739808979
 30
0.0
 10
8.7296910334
 20
5.4663329264
 30
0.0
 10
8.4973055437
 20
5.4603225697
 30
0.0
 10
8.2697558347
 20
5.4558367071
 30
0.0
 10
8.0418978014
 20
5.4529950549
 30
0.0
 10
7.8892842353
 20
5.4523409446
 30
0.0
 10
7.8125197642
 20
5.4523409446
 30
0.0
  0
SPLINE
  5
382
100
AcDbEntity
  8
06___PRT_ALL_SURFS
100
AcDbSpline
 62
7
  6
CONTINUOUS
 70
0
 71
3
 72
13
 73
9
 74
0
 42
0.0000001
 43
0.0000001
 44
0.0000000001
 40
0.0
 40
0.0
 40
0.0
 40
0.0
 40
0.1634051649
 40
0.3245159543
 40
0.4837514645
 40
0.6448145715
 40
0.8138917913
 40
1.0
 40
1.0
 40
1.0
 40
1.0
 10
7.8125197642
 20
5.4523409446
 30
0.0
 10
7.7349908503
 20
5.4523409446
 30
0.0
 10
7.5810208195
 20
5.453007533
 30
0.0
 10
7.3515169556
 20
5.4558950379
 30
0.0
 10
7.1231515919
 20
5.4604276067
 30
0.0
 10
6.8910403707
 20
5.4664581745
 30
0.0
 10
6.6462195978
 20
5.4740735417
 30
0.0
 10
6.4778040915
 20
5.4800392109
 30
0.0
 10
6.3895643376
 20
5.4833155536
 30
0.0
  0
SPLINE
  5
383
100
AcDbEntity
  8
06___PRT_ALL_SURFS
100
AcDbSpline
 62
7
  6
CONTINUOUS
 70
0
 71
3
 72
13
 73
9
 74
0
 42
0.0000001
 43
0.0000001
 44
0.0000000001
 40
0.0
 40
0.0
 40
0.0
 40
0.0
 40
0.1883904128
 40
0.3585173517
 40
0.5197182555
 40
0.6783429799
 40
0.8382060281
 40
1.0
 40
1.0
 40
1.0
 40
1.0
 10
19.165028557
 20
5.4514827561
 30
0.0
 10
19.0757067373
 20
5.4481662363
 30
0.0
 10
18.9057112178
 20
5.4421481004
 30
0.0
 10
18.6592443995
 20
5.4345001289
 30
0.0
 10
18.4268589098
 20
5.4284897722
 30
0.0
 10
18.1993092008
 20
5.4240039096
 30
0.0
 10
17.9714511676
 20
5.4211622574
 30
0.0
 10
17.8188376015
 20
5.4205081471
 30
0.0
 10
17.7420731304
 20
5.4205081471
 30
0.0
  0
SPLINE
  5
384
100
AcDbEntity
  8
06___PRT_ALL_SURFS
100
AcDbSpline
 62
7
  6
CONTINUOUS
 70
0
 71
3
 72
13
 73
9
 74
0
 42
0.0000001
 43
0.0000001
 44
0.0000000001
 40
0.0
 40
0.0
 40
0.0
 40
0.0
 40
0.1634051649
 40
0.3245159543
 40
0.4837514645
 40
0.6448145715
 40
0.8138917913
 40
1.0
 40
1.0
 40
1.0
 40
1.0
 10
17.7420731304
 20
5.4205081471
 30
0.0
 10
17.6645442165
 20
5.4205081471
 30
0.0
 10
17.5105741856
 20
5.4211747355
 30
0.0
 10
17.2810703217
 20
5.4240622404
 30
0.0
 10
17.052704958
 20
5.4285948092
 30
0.0
 10
16.8205937368
 20
5.434625377
 30
0.0
 10
16.575772964
 20
5.4422407442
 30
0.0
 10
16.4073574577
 20
5.4482064134
 30
0.0
 10
16.3191177038
 20
5.4514827561
 30
0.0
  0
ENDSEC
  0
SECTION
  2
OBJECTS
  0
DICTIONARY
  5
C
100
AcDbDictionary
280
0
281
1
  3
ACAD_GROUP
350
D
  3
ACAD_MLINESTYLE
350
17
  3
ACAD_LAYOUT
350
1A
  3
ACAD_PLOTSETTINGS
350
19
  3
ACAD_PLOTSTYLENAME
350
E
  0
DICTIONARY
  5
D
102
{ACAD_REACTORS
330
C
102
}
100
AcDbDictionary
280
0
281
1
  0
ACDBDICTIONARYWDFLT
  5
E
102
{ACAD_REACTORS
330
C
102
}
100
AcDbDictionary
281
1
  3
Normal
350
F
100
AcDbDictionaryWithDefault
340
F
  0
DICTIONARY
  5
17
102
{ACAD_REACTORS
330
C
102
}
100
AcDbDictionary
280
0
281
1
  3
Standard
350
18
  0
DICTIONARY
  5
19
102
{ACAD_REACTORS
330
C
102
}
100
AcDbDictionary
281
1
  0
DICTIONARY
  5
1A
102
{ACAD_REACTORS
330
C
102
}
100
AcDbDictionary
281
1
  3
Model
350
385
  3
Layout1
350
386
  0
ACDBPLACEHOLDER
  5
F
102
{ACAD_REACTORS
330
E
102
}
  0
MLINESTYLE
  5
18
102
{ACAD_REACTORS
330
17
102
}
100
AcDbMlineStyle
  2
STANDARD
 70
0
  3

 62
256
 51
90.0
 52
90.0
 71
2
 49
0.5
 62
256
  6
BYLAYER
 49
-0.5
 62
256
  6
BYLAYER
  0
LAYOUT
  5
385
102
{ACAD_REACTORS
330
1A
102
}
100
AcDbPlotSettings
  1

  2
none_device
  4
ANSI_D_(34.00_x_22.00_Inches)
  6

 40
0.0
 41
0.0
 42
0.0
 43
0.0
 44
863.6
 45
558.8
 46
0.0
 47
0.0
 48
0.0
 49
0.0
140
0.0
141
0.0
142
1.0
143
1.0
 70
1024
 72
0
 73
0
 74
0
  7

 75
0
147
1.0
148
0.0
149
0.0
100
AcDbLayout
  1
Model
 70
0
 71
0
 10
0.0
 20
0.0
 11
34.0
 21
22.0
 12
0.0
 22
0.0
 32
0.0
 14
0.0
 24
0.0
 34
0.0
 15
0.0
 25
0.0
 35
0.0
146
0.0
 13
0.0
 23
0.0
 33
0.0
 16
1.0
 26
0.0
 36
0.0
 17
0.0
 27
1.0
 37
0.0
 76
0
330
21A
345
0
346
0
  0
LAYOUT
  5
386
102
{ACAD_REACTORS
330
1A
102
}
100
AcDbPlotSettings
  1

  2
none_device
  4
ANSI_D_(34.00_x_22.00_Inches)
  6

 40
0.0
 41
0.0
 42
0.0
 43
0.0
 44
863.6
 45
558.8
 46
0.0
 47
0.0
 48
0.0
 49
0.0
140
0.0
141
0.0
142
1.0
143
1.0
 70
0
 72
0
 73
0
 74
0
  7

 75
0
147
1.0
148
0.0
149
0.0
100
AcDbLayout
  1
Layout1
 70
0
 71
1
 10
0.0
 20
0.0
 11
34.0
 21
22.0
 12
0.0
 22
0.0
 32
0.0
 14
0.0
 24
0.0
 34
0.0
 15
0.0
 25
0.0
 35
0.0
146
0.0
 13
0.0
 23
0.0
 33
0.0
 16
1.0
 26
0.0
 36
0.0
 17
0.0
 27
1.0
 37
0.0
 76
0
330
21B
345
0
346
0
  0
ENDSEC
  0
EOF
